BluRayCD Forum

 找回密码
 立即注册【分享大片】
查看: 26|回复: 1
收起左侧

[2160P极清] 魔弦传说 [4K SDR高码版] Kubo and the Two Strings 2016 2160p BluRaycd x265 10bit & 8bit SDR DTS-HD MA TrueHD 7.1 Atmos-SWTYBLZ 31.76GB & 35.47GB

[复制链接]

9152

主题

172

回帖

9万

积分

Post Share

金币
3036 枚
体力
28084 点

卓越贡献勋章

黄金嫖客 发表于 2023-3-18 05:03:49 | 显示全部楼层 |阅读模式
' n. A# c% z( h$ V7 T  L" _  l

1 i( }' j! T4 e/ e◎片  名 Kubo and the Two Strings
2 q" C5 r+ a* d* L1 _1 s◎译  名 魔弦传说/久保与二弦琴/久保与二胡/酷宝:魔弦传说(台)/捉妖敢死队(港)- P4 J: D* V! u
◎年  代 2016
, t& k7 D. a8 {* j& u* D" \! I◎产  地 美国* w1 W, z. n3 d0 g& P
◎类  别 动画/奇幻/冒险* \* f  X9 y( f- R3 ]
◎语  言 英语/ I: E. E+ d0 a. R* {1 V9 m; I
◎上映日期 2017-01-13(中国大陆)/2016-08-19(美国)
7 m- f. ]% y# {3 B& ]) ]; [◎IMDb评分  7.7/10 from 132,093 users& j$ _+ y/ Y$ z9 U
◎IMDb链接  https://www.imdb.com/title/tt4302938/3 U! O7 R2 S+ {7 U7 ^! C# y2 m5 \/ f
◎豆瓣评分 7.4/10 from 77,940 users+ G8 f4 j6 H: \! Y
◎豆瓣链接 https://movie.douban.com/subject/26287884/
2 @/ M- l0 S/ A! u. J# ^◎片  长 1 h 41 min/ P  K" P* G: W) s$ R. s( g9 C: J) O
◎导  演 特拉维斯·奈特 Travis Knight7 H( ]8 U& c! k3 K3 W
◎编  剧 马克·海姆斯 Marc Haimes5 e) N/ ?( j, B( c4 ~4 A
       克里斯·巴特勒 Chris Butler
5 }! C) X+ h: Q# r$ Y       珊农·廷德尔 Shannon Tindle
! I- v# ?8 E! ?; }7 R* R◎主  演 查理兹·塞隆 Charlize Theron
& K! f2 D1 Z% N, B       马修·麦康纳 Matthew McConaughey
& |, l/ ]6 T; }9 `3 h. X       拉尔夫·费因斯 Ralph Fiennes
  [  L0 M- Q" R  x       阿特·帕金森 Art Parkinson
# O2 K% i; C2 r2 ?; ^2 D" f       鲁妮·玛拉 Rooney Mara
: J: y! V4 s9 |9 V3 P2 o       武井乔治 George Takei7 O" V% x* q; G, q9 O- H/ {
       田川洋行 Cary-Hiroyuki Tagawa
' |* G5 W6 n& t! L$ ]" M) r: u* ^       野路美苗 Minae Noji) R% y" I# C4 f5 P
       布伦达·瓦卡罗 Brenda Vaccaro
1 I  ~; I: X  e       肯·竹本 Ken Takemoto: r( u9 ~" I! f( [
       瑞金娜·斯派克特 Regina Spektor# S  E( L" B/ {
4 R" i7 x# Z4 N! L$ s3 M
◎标  签 动画 | 美国 | 奇幻 | 定格 | 冒险 | 日本 | 2016 | 成长4 p& B: ?  k$ `/ k5 W, B7 z

3 s( R% Z- B) M5 A; [- Y◎简  介  M: v0 z7 L: N
/ V6 u: \* x! t: d* a
  故事主角是生活在海岸边的男孩久保。当一位来自过去的怨灵将他卷入复仇之中的时候,久保平静低调的生活瞬间掀起巨浪。在神灵与妖怪的追杀之下,久保反败为胜的唯一希望就是寻回父亲生前披戴过的那副拥有法力的盔甲。鼓起勇气的久保就此踏上了奥德赛式的征程,而路上等待他的不仅有埋藏在家族里的秘密,还有为保护这片土地与头顶的星空展开的英勇抗争。
5 z! n6 j/ P7 n5 \: _8 p
! F6 x8 r$ G+ |" c4 a' A  Kubo lives a quiet, normal life in a small shoreside village until a spirit from the past turns his life upside down by re-igniting an age-old vendetta. This causes all sorts of havoc as gods and monsters chase Kubo who, in order to survive, must locate a magical suit of armor once worn by his late father, a legendary Samurai warrior.2 [- N- J; k+ t0 F% w
# ~2 @% o* n$ j- G7 X/ F: c
SWEATY BALLZ presents
( f1 F" `) b& N( t) {- U$ y' U
9 U. W' y" q! n6 x0 l0 xKubo.and.the.Two.Strings.2016.2160p.BluRayCD.x265.10bit.SDR.DTS-HD.MA.TrueHD.7.1.Atmos-SWTYBLZ 31.76 GB
5 w7 b5 ^6 V$ v/ @, ]6 `% BConverted from 10 bit HDR to 10 bit SDR using tripple mixed Hable-Reinhard-JJ per scene+frame analysis algorithm3 q+ h' @7 c& J5 l* d! O
Screenshots are 8bit SDR- G4 h" Q5 w6 ]+ Y1 A& q

# y1 d) k, g4 n. k! fVideo
2 h6 b/ u* Y6 B. i  LID                                       : 1
! B, ]2 H. w5 [% VFormat                                   : HEVC
" E' o. |  ]9 `* ZFormat/Info                              : High Efficiency Video Coding% w. s. m7 G+ P
Format profile                           : Main 10@L5.1@High
+ Y' n; F+ J/ zCodec ID                                 : V_MPEGH/ISO/HEVC
/ y; M# p! G( Y% FDuration                                 : 1 h 41 min
9 }9 `9 ~& p# _# J4 l# u1 n" l5 J2 SBit rate                                 : 36.4 Mb/s
/ R- R# r! {. s' Y  i8 dWidth                                    : 3 840 pixels
. y7 Q7 }* C1 y2 v7 f  uHeight                                   : 1 606 pixels: F7 P/ d9 R: U
Display aspect ratio                     : 2.40:1) i9 L* `: ?5 k
Frame rate mode                          : Constant
6 w' x. J7 |; e8 v2 n3 X$ t- XFrame rate                               : 24.000 FPS
: T" z+ }9 r6 P' KColor space                              : YUV
. {6 l  [: G  k0 ZChroma subsampling                       : 4:2:0! q5 ]& E) V. s" I7 o% }
Bit depth                                : 10 bits3 G$ e$ d7 a' Z! {, F  e
Bits/(Pixel*Frame)                       : 0.246+ M# b; e- p# t2 _1 q3 b
Stream size                              : 25.8 GiB (81%)) K4 j7 T4 j. f* n1 X
Writing library                          : x265 3.0+1-ed72af837053:[Windows][GCC 8.2.0][64 bit] 10bit' \5 d& K; G( b+ @, Y
Encoding settings                        : cpuid=1111039 / frame-threads=6 / numa-pools=40 / wpp / no-pmode / no-pme / no-psnr / no-ssim / log-level=2 / input-csp=1 / input-res=3840x1606 / interlace=0 / total-frames=146189 / level-idc=51 / high-tier=1 / uhd-bd=0 / ref=3 / no-allow-non-conformance / repeat-headers / annexb / aud / hrd / info / hash=0 / no-temporal-layers / no-open-gop / min-keyint=1 / keyint=24 / gop-lookahead=0 / bframes=4 / b-adapt=2 / b-pyramid / bframe-bias=0 / rc-lookahead=25 / lookahead-slices=4 / scenecut=40 / radl=0 / no-splice / no-intra-refresh / ctu=64 / min-cu-size=8 / no-rect / no-amp / max-tu-size=32 / tu-inter-depth=1 / tu-intra-depth=1 / limit-tu=0 / rdoq-level=0 / dynamic-rd=0.00 / no-ssim-rd / signhide / no-tskip / nr-intra=0 / nr-inter=0 / no-constrained-intra / strong-intra-smoothing / max-merge=2 / limit-refs=3 / no-limit-modes / me=1 / subme=2 / merange=57 / temporal-mvp / weightp / no-weightb / no-analyze-src-pics / deblock=0:0 / no-sao / no-sao-non-deblock / rd=3 / no-early-skip / rskip / no-fast-intra / no-tskip-fast / no-cu-lossless / no-b-intra / no-splitrd-skip / rdpenalty=0 / psy-rd=2.00 / psy-rdoq=0.00 / no-rd-refine / no-lossless / cbqpoffs=0 / crqpoffs=0 / rc=crf / crf=14.0 / qcomp=0.60 / qpstep=4 / stats-write=0 / stats-read=0 / vbv-maxrate=160000 / vbv-bufsize=160000 / vbv-init=0.9 / crf-max=0.0 / crf-min=0.0 / ipratio=1.40 / pbratio=1.30 / aq-mode=1 / aq-strength=1.00 / cutree / zone-count=0 / no-strict-cbr / qg-size=32 / no-rc-grain / qpmax=69 / qpmin=0 / no-const-vbv / sar=1 / overscan=0 / videoformat=5 / range=0 / colorprim=2 / transfer=2 / colormatrix=2 / chromaloc=0 / display-window=0 / max-cll=0,0 / min-luma=0 / max-luma=1023 / log2-max-poc-lsb=8 / vui-timing-info / vui-hrd-info / slices=1 / opt-qp-pps / opt-ref-list-length-pps / no-multi-pass-opt-rps / scenecut-bias=0.05 / no-opt-cu-delta-qp / no-aq-motion / no-hdr / no-hdr-opt / no-dhdr10-opt / no-idr-recovery-sei / analysis-reuse-level=5 / scale-factor=0 / refine-intra=0 / refine-inter=0 / refine-mv=0 / refine-ctu-distortion=0 / no-limit-sao / ctu-info=0 / no-lowpass-dct / refine-analysis-type=0 / copy-pic=1 / max-ausize-factor=1.0 / no-dynamic-refine / no-single-sei / no-hevc-aq / qp-adaptation-range=1.00+ |. j7 t3 j6 Y! X7 a' K3 Y  C
Default                                  : Yes
0 O9 |% _" _( q, y& q4 ?Forced                                   : No
% r& s# x" \" J# J' L
3 \$ |4 T# B5 D5 P5 }0 J* b5 VAudio #1; X& A3 b5 b; R2 l3 h' y
ID                                       : 2
0 a. o: x1 |7 L' n6 y- o" r& sID in the original source medium         : 4352 (0x1100)9 v# c! R& i9 n
Format                                   : MLP FBA 16-ch
+ k+ B! ?  c5 i$ tFormat/Info                              : Meridian Lossless Packing FBA with 16-channel presentation: h3 P4 A( r% p2 y( N
Commercial name                          : Dolby TrueHD with Dolby Atmos, ?! A+ I0 x3 n( E7 y: R* R: k
Codec ID                                 : A_TRUEHD
9 E, o/ m1 p3 m$ k' W9 lDuration                                 : 1 h 41 min
* P) V9 q/ Y: r1 U1 [, ]8 n/ i$ X+ CBit rate mode                            : Variable
, e8 B: g- p9 a5 C- T+ I" k, FBit rate                                 : 3 882 kb/s
' ^2 m  f+ z% n. j5 zMaximum bit rate                         : 6 432 kb/s
7 ]2 o2 s7 Z( a+ W5 x% n* bChannel(s)                               : 8 channels
2 _' X9 W1 m+ _* b2 m2 i5 \. AChannel layout                           : L R C LFE Ls Rs Lb Rb/ Y* j  o) ^  {% a5 w- c, H. |
Sampling rate                            : 48.0 kHz  W! o$ {- p5 V2 m1 h# E+ a
Frame rate                               : 1 200.000 FPS (40 SPF)
9 D# m- l' O% |  l# u; mBit depth                                : 24 bits
4 i( R6 M% H/ N# x1 fCompression mode                         : Lossless4 {6 ^) |# \, e: n: w5 f) o
Stream size                              : 2.75 GiB (9%)/ h5 ~# @  K! X! }1 `
Title                                    : TrueHD 7.1 Atmos# j' M& Z  `# Z" w6 j; l& S6 W
Language                                 : English, P: `" n- k, \3 S7 Q
Default                                  : Yes
% J/ r3 k$ z& m  T9 d( K, Q3 |3 HForced                                   : No- `' X& h7 n. c: o
Original source medium                   : Blu-ray/ Z. n; b4 r6 y9 E5 Y9 `
Number of dynamic objects                : 11( q! Z+ D: l# i7 T# h
Bed channel count                        : 1 channel
3 U: t' s+ z; p9 @6 l# J2 t* LBed channel configuration                : LFE9 e$ F) k5 D  k. U
( \5 b: Q* |3 @$ }# p
Audio #2
% `" \/ F$ m& `- ^ID                                       : 3, w# ?; x. E: I- P, |
Format                                   : DTS XLL
* q7 C) W+ h/ \$ YFormat/Info                              : Digital Theater Systems% F  Z" s# [# Z1 _
Commercial name                          : DTS-HD Master Audio4 ~8 b& Q3 Q3 G) O2 ?. b
Codec ID                                 : A_DTS
$ Q) B2 H; v0 j4 uDuration                                 : 1 h 41 min, t" ~* g. p9 f; w& w" ^
Bit rate mode                            : Variable1 q, C6 U9 g  v
Bit rate                                 : 3 883 kb/s& ]# _9 Y# j" k7 ^/ k+ i' {
Channel(s)                               : 8 channels
$ l4 a) N6 p( p' S0 P3 mChannel layout                           : C L R LFE Lb Rb Lss Rss
- }3 c, E) \1 jSampling rate                            : 48.0 kHz5 k9 ^1 K9 x9 }
Frame rate                               : 93.750 FPS (512 SPF)' t6 N# ^1 ~. G+ s
Bit depth                                : 24 bits
4 w) S4 ^4 \/ O. v: q  X' dCompression mode                         : Lossless% q4 ~1 }9 a# e7 ]0 I& M- M
Stream size                              : 2.75 GiB (9%)* Y8 [/ B! v0 N8 S* z' U
Title                                    : DTS-HD MA 7.11 [0 o5 d( M! b
Language                                 : English) c' K5 T8 U: J
Default                                  : No
- k* t  @4 Z" m( u/ @" i- ?8 e! J" g! WForced                                   : No; E% o5 A+ R+ o# G9 e8 E+ [- k

- r$ K) q- y+ S9 b0 n* C& k" y* KAudio #30 a: T- X. Z0 V) r8 D/ s5 y
ID                                       : 46 E( Q2 G8 u$ i1 G
ID in the original source medium         : 4352 (0x1100)
% k4 a" \# c, c# I) [4 i+ ~Format                                   : AC-3
0 t9 m3 L; _- i, i- W9 K0 HFormat/Info                              : Audio Coding 3
# h/ J) o5 A' g) |( f: }Commercial name                          : Dolby Digital
" m# \$ u- n: L4 a  |; P0 n( KCodec ID                                 : A_AC30 B  w& J6 j9 Y: {9 |1 k
Duration                                 : 1 h 41 min
  G4 q1 j& Z8 u$ ]- j% ]' fBit rate mode                            : Constant
+ w2 N9 M3 j8 l! r5 g' x( [# s  h$ B5 YBit rate                                 : 384 kb/s8 _( G/ o5 H+ S. D
Channel(s)                               : 6 channels
7 c3 H6 T: E7 Z1 v& r9 tChannel layout                           : L R C LFE Ls Rs
8 B3 M2 Q6 z4 S% |' G5 iSampling rate                            : 48.0 kHz3 u) O* ~' w  `$ m
Frame rate                               : 31.250 FPS (1536 SPF)
. y3 H" L" ~! zCompression mode                         : Lossy
% G: D$ Y+ A' f/ u5 j& `3 ]Stream size                              : 279 MiB (1%)0 {$ t0 V2 `: p4 T  V
Title                                    : DD 5.1
$ B0 E" n" Z; Z4 q7 eLanguage                                 : English3 r. a7 S6 {  k" B$ |* ]6 A$ C
Service kind                             : Complete Main9 U0 m) y, ^6 F  ^
Default                                  : No
& l1 D. Q( q7 u, Q+ qForced                                   : No
, H- r3 R2 b0 y  UOriginal source medium                   : Blu-ray
1 ?$ f0 v/ A7 s  M' |+ O8 j9 q6 y% ^5 u7 q0 {7 U, x0 ^5 i
Text #1
, p; i. s2 a6 ^( _' kID                                       : 5, f* U0 ?( U# [/ p7 @% l
Format                                   : UTF-8
5 \7 i- n* d/ N" D4 M6 {Codec ID                                 : S_TEXT/UTF8* z5 f# X' W& a
Codec ID/Info                            : UTF-8 Plain Text
, n4 M0 O" c" U- f) C* xDuration                                 : 1 h 32 min
0 b# D/ W+ U+ b' E5 r: D6 TBit rate                                 : 41 b/s6 \; D9 P4 R# ?
Frame rate                               : 0.185 FPS
$ T- \, b$ d" l( b  V% P7 jCount of elements                        : 10239 M* Y" @% C, b" {' C; O
Stream size                              : 28.3 KiB (0%)
2 h/ k- E$ F) ZLanguage                                 : English$ `% c* z" B5 k8 m! U
Default                                  : Yes
* w1 }1 U- [( G( ^4 [Forced                                   : No
' l( m$ k3 ^$ u( J% Q' q' l& k2 [% f, m* @1 l5 x  p2 k( O
Text #2
0 y/ R( p" Y; i4 c1 u" ^ID                                       : 6; f1 t! G4 q; P  l- |
Format                                   : UTF-8  N6 h: U$ M3 H0 \) n
Codec ID                                 : S_TEXT/UTF8
, s, b5 B  N' a$ Q8 R' ?- GCodec ID/Info                            : UTF-8 Plain Text
- f" R( f' J9 b5 J. K* j( t: W0 JDuration                                 : 1 h 37 min
1 y" h/ f; ?- g1 R8 X* OBit rate                                 : 49 b/s
* T5 D: T/ _, x9 `Frame rate                               : 0.237 FPS
( A. E( C) r& H. _. ?1 a; ]1 I# ICount of elements                        : 1392* M/ v$ a! t  Z5 w& j
Stream size                              : 35.7 KiB (0%)
! h# X! ?) {- T% H1 O7 H: fTitle                                    : SDH, G( b: B0 F' k7 ^! y: U3 l
Language                                 : English& x# a, m) X9 \4 s8 i7 g; `# x
Default                                  : No' `' I+ l& c8 z) A8 `
Forced                                   : No
, G- h; y. W8 @& }, f' G0 ?0 E' }( f! k  k' f, P, e- a
Text #3
9 j8 ~$ @, j% q& FID                                       : 7
  L; z3 }& c) iID in the original source medium         : 4768 (0x12A0)
" [" n) K) K- ]9 `5 NFormat                                   : PGS# X$ }4 m# o8 m! M6 U9 J5 \
Muxing mode                              : zlib
0 t" H% x# \% C" H( W. O" RCodec ID                                 : S_HDMV/PGS1 d7 \0 v6 Y% ]/ E
Codec ID/Info                            : Picture based subtitle format used on BDs/HD-DVDs
9 t- ]8 O& r; ~0 ~Duration                                 : 1 h 37 min
% H5 z7 W2 l5 eBit rate                                 : 31.9 kb/s
2 ^" u4 N1 @& V$ w% r& ~) ~! S6 W6 hFrame rate                               : 0.478 FPS
. _! l, |* c/ x; m, `4 B) PCount of elements                        : 2808/ E+ u' H; ]( M2 v' {
Stream size                              : 22.3 MiB (0%)
9 h  N+ H- n3 ^Language                                 : English
$ x0 J: F- P: v- bDefault                                  : No* e: P; g! h  G4 |" `5 k- l# e
Forced                                   : No; W  i0 R- k) T
Original source medium                   : Blu-ray/ m/ n/ K/ G* K- V3 A9 T5 T

5 l0 K4 F( ?/ ZText #4
) B9 B  E! y7 |3 RID                                       : 82 N' O( Z. s8 \9 B
ID in the original source medium         : 4769 (0x12A1)
, z  f) m6 }" p  g. jFormat                                   : PGS3 s0 @6 V( U! Q" e3 N) M9 `1 [6 @( t' n
Muxing mode                              : zlib
. v! X# N0 i6 [! z, s3 c+ e: @Codec ID                                 : S_HDMV/PGS
% G! o- [5 D4 n+ D( b0 ~Codec ID/Info                            : Picture based subtitle format used on BDs/HD-DVDs
7 y- @* x' M$ }( B1 GDuration                                 : 1 h 41 min$ ~* O: m: @* u1 J: u5 H* D: u6 V
Bit rate                                 : 23.4 kb/s+ v( o# c% g4 ?& w: O0 V2 b! B
Frame rate                               : 0.349 FPS
6 C/ ?$ f$ h6 E( O+ d) |4 M6 oCount of elements                        : 2114. v) O% _" B7 m: g( V! X$ J! M3 \
Stream size                              : 17.0 MiB (0%)
# `  b& B1 j: J  W( k" D1 JLanguage                                 : Spanish
9 g* j* j! L' UDefault                                  : No
. X# n0 F# G6 G3 E$ ]8 UForced                                   : No5 S1 P; N/ S. a- M: r' g" ~
Original source medium                   : Blu-ray
" D5 Z4 X  ]4 n) J  S! |4 I
: t' N/ F( ]7 @5 L. uText #5
/ g7 u. V# d4 f. u- @# h3 g' cID                                       : 94 Q1 ?' c, p2 s
ID in the original source medium         : 4770 (0x12A2)
+ U$ x2 h% ~: |# yFormat                                   : PGS
. v, r" H/ N* Z; X* kMuxing mode                              : zlib
/ _* i& b" f) Z) W2 X& t9 v" ZCodec ID                                 : S_HDMV/PGS
; Q. f) _: `; ~$ [6 n- q' f& _$ bCodec ID/Info                            : Picture based subtitle format used on BDs/HD-DVDs
6 [: z; j7 K' q/ Z0 Z9 IDuration                                 : 1 h 40 min8 |8 X& [; s/ U  [& y. e4 v: {% ]# W; |
Bit rate                                 : 22.3 kb/s
% B+ V" N2 U! d8 {7 b% l: X7 l: NFrame rate                               : 0.336 FPS
6 l2 L) O0 a1 f) u& T  c: lCount of elements                        : 2034
# r) W9 Q9 C9 K( }- E( n; OStream size                              : 16.1 MiB (0%)' t, ~9 l& D. \! g
Language                                 : French9 k" T* o* ~$ J. v, k  W. Q
Default                                  : No
: u. j. t" a6 R, l: U9 GForced                                   : No
; l9 y0 w1 z, U4 x9 e# [Original source medium                   : Blu-ray
% \# b' X1 ?8 T' N% P+ u0 t4 u  B3 A( x' p( {5 w
Menu
: k5 x) Y9 @) g5 Q! \00:00:00.000                             : en:Chapter 01
0 ^; m) I0 P( b* }( Q00:08:10.416                             : en:Chapter 02! E! ?4 K8 m) E0 ~2 ?( J
00:16:18.166                             : en:Chapter 03
# o* Y  g# p8 J$ Z/ A6 v7 R# p9 P00:25:55.791                             : en:Chapter 04. ?4 l, U/ p/ `, g* J* J
00:32:11.583                             : en:Chapter 05
, L7 i; ~  Y9 T4 {00:41:37.458                             : en:Chapter 06! q" Z# z( |, P; ~) _
00:47:46.791                             : en:Chapter 07- T- p+ n- D0 t
00:56:18.375                             : en:Chapter 08
, @% c2 d: X1 f01:04:03.041                             : en:Chapter 09
0 V- X( D$ E4 X9 N" s! t01:11:58.333                             : en:Chapter 10
# [' N9 y6 `, H01:19:56.833                             : en:Chapter 11
2 `! g" w2 N$ ?( o* ]01:28:41.625                             : en:Chapter 12
SWEATY BALLZ presents
$ |( o* o( \- T5 y; A2 K; E9 p$ e, ^# i+ |; x! T' h
Kubo.and.the.Two.Strings.2016.2160p.BluRaycd.x264.8bit.SDR.DTS-HD.MA.TrueHD.7.1.Atmos-SWTYBLZ 35.47 GB
% F8 v! ^3 J/ w2 \/ `2 L3 [7 OConverted from 10 bit HDR to 8 bit SDR using tripple mixed Hable-Reinhard-JJ per scene+frame analysis algorithm/ f0 u2 m8 a, Z4 D7 t8 j* e7 W9 w
+ b* R( S7 ~; t5 I( D; E
Video. r! p8 Q. B( A1 z- q0 N
ID                                       : 1
$ C: E! J! r8 k; O' l. J7 y8 w& ^Format                                   : AVC
! q$ J7 R6 `! n/ `" L' Q( e; `Format/Info                              : Advanced Video Codec% H* w) R& v" P9 q' w
Format profile                           : High@L5.1
; Y4 i$ R: i! i4 A, ^Format settings                          : CABAC / 5 Ref Frames: k1 l! c- b6 P. [& |
Format settings, CABAC                   : Yes
, Y9 W6 I$ n( M' g; \Format settings, Reference frames        : 5 frames
9 l1 E8 T5 c+ u# bCodec ID                                 : V_MPEG4/ISO/AVC
) d$ N% e: z- P! d2 N, O2 LDuration                                 : 1 h 41 min( k9 C* X% V: z! z
Bit rate                                 : 41.6 Mb/s- O1 ]" [% a5 o( ]( N+ {
Width                                    : 3 840 pixels
- z4 R4 _1 [# H. q- q6 n! `Height                                   : 1 606 pixels: G2 l; N2 \" a2 P; @" g; o1 y
Display aspect ratio                     : 2.40:1
1 }, L9 v- X) Q( QFrame rate mode                          : Constant
7 m" e" b/ w! EFrame rate                               : 24.000 FPS
8 }2 j( p2 B/ n% ?Color space                              : YUV
. c) W8 Q& a! q" J7 W+ X+ w) }( \Chroma subsampling                       : 4:2:0
2 ?* Y' _6 `: l4 [. n; H5 J8 @" E% XBit depth                                : 8 bits9 F* J3 U* K+ t* l. {. h9 R+ @
Scan type                                : Progressive
* \2 z4 L2 s: U6 QBits/(Pixel*Frame)                       : 0.281
( C  {3 M. K* P, g& w- TStream size                              : 29.5 GiB (83%)
, c; m; K7 x$ oWriting library                          : x264 core 157 r2935 545de2f8 r, R: X& P$ V7 K  M% j. {
Encoding settings                        : cabac=1 / ref=5 / deblock=1:-1:-1 / analyse=0x3:0x113 / me=umh / subme=10 / psy=1 / psy_rd=1.00:0.15 / mixed_ref=1 / me_range=48 / chroma_me=1 / trellis=2 / 8x8dct=1 / cqm=0 / deadzone=21,11 / fast_pskip=1 / chroma_qp_offset=-3 / threads=48 / lookahead_threads=4 / sliced_threads=0 / nr=0 / decimate=0 / interlaced=0 / bluray_compat=0 / constrained_intra=0 / bframes=3 / b_pyramid=2 / b_adapt=2 / b_bias=0 / direct=3 / weightb=1 / open_gop=0 / weightp=2 / keyint=250 / keyint_min=24 / scenecut=40 / intra_refresh=0 / rc_lookahead=50 / rc=crf / mbtree=1 / crf=16.0 / qcomp=0.60 / qpmin=0 / qpmax=69 / qpstep=4 / ip_ratio=1.40 / aq=1:1.00
1 m) o/ b0 y' u: E/ qDefault                                  : Yes) S4 a* y, [! K, v6 l+ q
Forced                                   : No
( t  f" y) F, s& k7 p2 y) P/ g4 a4 S: @- Z+ p
Audio #10 P+ j, m1 N" H$ r  k
ID                                       : 2/ A/ L1 P' \2 |0 p; x' ]+ x
ID in the original source medium         : 4352 (0x1100)
: t# ^; W% I& e4 Z, G8 j! JFormat                                   : MLP FBA 16-ch! i: S  T. W; N& k1 p+ L
Format/Info                              : Meridian Lossless Packing FBA with 16-channel presentation
3 i- l1 m4 u1 ZCommercial name                          : Dolby TrueHD with Dolby Atmos% d, t/ O" k  Q  `
Codec ID                                 : A_TRUEHD1 S8 e1 `; S5 K: j' I
Duration                                 : 1 h 41 min, m8 j- P0 G& ?
Bit rate mode                            : Variable
3 I! \0 F* H4 V" c, ?' y+ OBit rate                                 : 3 882 kb/s1 X3 @$ j- |  [' S8 O0 \9 G
Maximum bit rate                         : 6 432 kb/s
0 l) |0 }: V4 c. QChannel(s)                               : 8 channels' n, J" H7 G' b
Channel layout                           : L R C LFE Ls Rs Lb Rb
, y: s& D3 L1 X9 e& lSampling rate                            : 48.0 kHz" D9 d# _: ~4 f& B0 P, L7 i. b* G& P
Frame rate                               : 1 200.000 FPS (40 SPF)
! Z1 R  a3 `; u1 W' Q0 E1 b' vBit depth                                : 24 bits
' Q0 x9 t; F; R0 b& xCompression mode                         : Lossless
" W+ v  Y& f, f( l  q8 KStream size                              : 2.75 GiB (8%)3 A7 j2 w5 ?2 J. y
Title                                    : TrueHD 7.1 Atmos
3 a1 Z# ?. g# T. f& S5 m9 \+ j7 h/ eLanguage                                 : English
& Q- j: b" Q5 K+ t$ t1 z% x! J& N; ~Default                                  : Yes
) w; X/ M! ^! [! `Forced                                   : No" b  p3 b  n8 Y2 X/ ]
Original source medium                   : Blu-ray
( @2 Z* s3 Z3 T3 D# B( HNumber of dynamic objects                : 11
# H+ d2 n! V1 Y# w: L0 z% KBed channel count                        : 1 channel/ J" E. f4 F7 j6 @% h
Bed channel configuration                : LFE
- {/ W" A* W" p8 \3 C6 }. I" L1 O9 E' S2 W( z  Z, ?8 C; B
Audio #21 ^; E+ X, }8 d: r2 K# W
ID                                       : 3: q. o- ^, C7 L5 I+ J. J: t( A$ D7 R
Format                                   : DTS XLL2 }( V; u0 J' j" j! q/ m
Format/Info                              : Digital Theater Systems
! m: a1 x2 U8 b9 R% Z$ P% oCommercial name                          : DTS-HD Master Audio( Q6 v9 B* J7 `" D* u
Codec ID                                 : A_DTS1 F+ t) A5 O7 w& t
Duration                                 : 1 h 41 min7 [. P. \, G) D4 r  u) U  a8 q/ n* [
Bit rate mode                            : Variable# h" h5 i  Q# p& A" |/ n
Bit rate                                 : 3 883 kb/s
8 l3 j% O2 Y3 F" \9 a/ JChannel(s)                               : 8 channels8 n0 s& J! P( F; z/ @* ?% P; m
Channel layout                           : C L R LFE Lb Rb Lss Rss
2 J. ~# C  T5 I. b0 HSampling rate                            : 48.0 kHz
6 Y3 I% z: f2 j& x8 p0 PFrame rate                               : 93.750 FPS (512 SPF)
. m4 I4 m/ U0 x4 HBit depth                                : 24 bits  w; z% N6 J- i, n" j0 M
Compression mode                         : Lossless7 _7 J7 C/ ^4 O
Stream size                              : 2.75 GiB (8%)
: Z  t; ]" f/ S. w7 V, pTitle                                    : DTS-HD MA 7.1
/ {. _( s! j, |7 U" H; l; y+ ~Language                                 : English
% {7 n' H7 |; g0 p) |2 R' @) ?Default                                  : No
) p$ u* R; s$ ^4 XForced                                   : No
( Z& Y2 t$ }7 y/ k" H
7 y) ^8 ?7 ~$ ~% W+ N+ |Audio #3
, t5 i) f2 Z6 m- I/ X8 F& `/ |ID                                       : 43 R& k" P, g' K3 e1 E  g1 M, y" ~" U* U$ |
ID in the original source medium         : 4352 (0x1100)  i% f3 p' H. E7 G2 \, ^1 n
Format                                   : AC-3
- \& z/ D' F( G% nFormat/Info                              : Audio Coding 3
, t0 D1 E8 R+ o& l: P" QCommercial name                          : Dolby Digital
: L( X. o4 a9 \4 I# x( R9 lCodec ID                                 : A_AC3
# a6 {% w8 w% ZDuration                                 : 1 h 41 min/ |: K, h$ ?9 y+ I3 f9 q/ N  K
Bit rate mode                            : Constant
/ }3 _! g& P) o) ?' nBit rate                                 : 384 kb/s
8 d6 V$ t. P. j7 c. @Channel(s)                               : 6 channels
0 T3 f6 ^; f' B: c: Q- H  VChannel layout                           : L R C LFE Ls Rs
- w4 ?) |5 U: r4 SSampling rate                            : 48.0 kHz
. W8 m# b5 q. j! b3 YFrame rate                               : 31.250 FPS (1536 SPF)
: Z" U- D: \, {7 c( ?- eCompression mode                         : Lossy
$ U+ B# [" K# P7 LStream size                              : 279 MiB (1%)) o- O0 T# f8 M- A! I, r0 d* C
Title                                    : DD 5.1! X( d0 {3 m7 B  b5 |: ]$ F
Language                                 : English
1 H. ^* Y* t/ G6 S' F# r% PService kind                             : Complete Main6 o& R6 y7 E% c9 H& r- j% R
Default                                  : No$ e; z, y8 r3 \( I
Forced                                   : No, E6 L0 K& a! {: x2 G$ J5 n
Original source medium                   : Blu-ray
, |" B3 A; b0 l% w
- a8 P" p5 |/ {' D2 t# }* S2 NText #1" J2 ~( m( ?/ i* P5 T) O
ID                                       : 5. B% X1 e& }. q; ^( E7 }  e
Format                                   : UTF-8
* X2 U# s$ u, p" w- L  b8 z% l5 E! O3 SCodec ID                                 : S_TEXT/UTF8
9 q6 x' s: ~5 p1 QCodec ID/Info                            : UTF-8 Plain Text
/ ^& D9 S% l" d2 f% H* yDuration                                 : 1 h 32 min
! Q2 ?, ]3 |9 _6 D/ YBit rate                                 : 41 b/s' @" _) P" ?5 i' }% _
Frame rate                               : 0.185 FPS$ N4 G1 _8 A7 p) s( o  n. T/ r
Count of elements                        : 1023
6 A& E2 l4 o+ l; M1 q3 PStream size                              : 28.3 KiB (0%)
! E! a) Q; `- s: ZLanguage                                 : English
, C9 I4 L# j/ t) Z9 u4 c  qDefault                                  : Yes$ \/ h# B' I" q
Forced                                   : No) m3 B# L6 {  ^% G( Z4 B; x. K$ }
9 g3 y3 P, o/ t& C) M$ \4 j. h& P$ E
Text #2
% i# a8 m! i4 s% nID                                       : 6
# ^. @1 J* f& R' r# O& }Format                                   : UTF-8
/ t% p/ \; W2 @Codec ID                                 : S_TEXT/UTF8
. h6 T) k( v. u1 i$ u+ f- F, hCodec ID/Info                            : UTF-8 Plain Text" j5 F) `8 v  L& k
Duration                                 : 1 h 37 min! b+ d& B: V/ a
Bit rate                                 : 49 b/s. F+ s# o* m! W) [
Frame rate                               : 0.237 FPS/ I4 C" Q/ \) _& K
Count of elements                        : 1392
8 b" o5 [+ _1 e% D" ^& sStream size                              : 35.7 KiB (0%)
' y* I; }( f7 Z+ m1 D4 PTitle                                    : SDH
( a/ ~* b% ~8 ?3 H" H3 i2 FLanguage                                 : English, G0 z( ?$ N& h$ N2 }/ H/ D+ ~0 j
Default                                  : No
& S" Q& T* b1 A" X6 pForced                                   : No
1 s% M7 d$ j1 Q5 g# w2 l# r7 Z- Y  a& v0 n$ I* s
Text #3+ V0 z1 S/ U) Q0 A$ B) E: }9 c) z
ID                                       : 7& J/ W. ?5 T, t- Z
ID in the original source medium         : 4768 (0x12A0)
& |$ O/ h  g* }, sFormat                                   : PGS
7 b. ?$ i# l* v- v) H8 H5 H: h* bMuxing mode                              : zlib
6 n% W/ Z+ N3 l9 J0 i. `Codec ID                                 : S_HDMV/PGS% Z! p5 o6 ^, i* a+ g) N, T
Codec ID/Info                            : Picture based subtitle format used on BDs/HD-DVDs, ?% D1 f. H: D2 {+ V' g; z9 T  @
Duration                                 : 1 h 37 min+ c% L( B' g/ D% q' ~1 [( U# z# `& D" ^
Bit rate                                 : 31.9 kb/s- \  N9 P( Z- x$ ]8 h
Frame rate                               : 0.478 FPS
* V3 Z$ K; V+ a6 V) I% N& rCount of elements                        : 2808
( P" w0 m' ~. ~* }: H* E$ j( v4 |Stream size                              : 22.3 MiB (0%)" a  L, q0 W/ U# U
Language                                 : English# X$ Q! F, I; T2 Z2 c
Default                                  : No+ J$ s+ u. u, ]( U6 z/ g/ U
Forced                                   : No6 ^4 \9 q. v9 h% R: c$ N# f* D
Original source medium                   : Blu-ray
  H* K3 O. l. H0 V
2 y8 x. ]3 j  ]6 i8 W* Z. t9 jText #47 E# z% G/ m  ?! H
ID                                       : 8! o2 i% V3 |( K! y# v# }& I1 i2 D# h
ID in the original source medium         : 4769 (0x12A1)/ z6 \) T. I* `# V8 k
Format                                   : PGS  {- p* y+ v6 ^# `1 J' w) c5 r
Muxing mode                              : zlib
. {" o9 f7 }8 d6 V* eCodec ID                                 : S_HDMV/PGS
- J) T$ n5 v. BCodec ID/Info                            : Picture based subtitle format used on BDs/HD-DVDs
1 [5 X/ _/ r: ]; Q! R4 T4 xDuration                                 : 1 h 41 min. y+ ]  F. v' {$ D5 O" R" V( N
Bit rate                                 : 23.4 kb/s6 O9 D. l2 `/ v7 T' N
Frame rate                               : 0.349 FPS
$ s# u% r! W* t9 W- ?Count of elements                        : 21141 h3 U( u" D6 ~0 I) B: a9 V
Stream size                              : 17.0 MiB (0%)% V! o* X/ O0 J( y% B6 c! O. R
Language                                 : Spanish
% T+ p2 w" C; X/ e/ G4 x5 JDefault                                  : No
; T) B# o5 @  f1 e) [3 R3 C5 CForced                                   : No
8 l3 V0 a1 z: w3 Y# n6 f; U; EOriginal source medium                   : Blu-ray5 Q, D/ Z! j& ?3 ?$ ^  F1 F

0 k% S' |5 ?6 u: l( D3 `& q$ s# }5 cText #5& L: t' Q6 x$ ?  z; D( d
ID                                       : 94 X. K/ `& c9 o7 V  T0 y
ID in the original source medium         : 4770 (0x12A2)% }/ w' g* N( n5 w7 D' M
Format                                   : PGS
2 [- E2 i0 Z0 ~" cMuxing mode                              : zlib
. ~6 _1 P( Q! ^Codec ID                                 : S_HDMV/PGS
6 X# R( f. @! j3 T+ p" [. D# a# ~Codec ID/Info                            : Picture based subtitle format used on BDs/HD-DVDs
8 m7 E6 t6 j: ADuration                                 : 1 h 40 min& T, N! R* a; t1 t" t1 Q
Bit rate                                 : 22.3 kb/s
' F8 c1 F6 J7 d4 rFrame rate                               : 0.336 FPS3 V' I) X, v* p8 v* M$ a5 Q4 Y
Count of elements                        : 2034
' Z) V- A# o( m4 g6 oStream size                              : 16.1 MiB (0%)
) ~% [- q; {. C* ]+ f+ xLanguage                                 : French9 l3 g( A/ ~- \6 A8 q
Default                                  : No
$ l! v. m- O0 r+ ?2 QForced                                   : No" t& h+ P( F% ~7 ^
Original source medium                   : Blu-ray. D# v8 T6 d: }; p$ Y
+ S& T! ?6 G" ~- n4 w
Menu- Z% L3 j! f3 j7 i5 @
00:00:00.000                             : en:Chapter 01
: S# R, f0 f9 D+ O) u00:08:10.416                             : en:Chapter 02# O: v- j- ^' o0 s- G+ A0 `" R. c
00:16:18.166                             : en:Chapter 034 [: L! y! \* R! Z
00:25:55.791                             : en:Chapter 044 M$ J7 P" Y7 Y+ f  r- n4 q
00:32:11.583                             : en:Chapter 05
: ]) K, {' s/ r7 J0 Z6 u00:41:37.458                             : en:Chapter 06  l! F6 X# u' b8 g
00:47:46.791                             : en:Chapter 07! {8 R# W% Z5 g$ m& Z
00:56:18.375                             : en:Chapter 082 P0 V. T; s+ y
01:04:03.041                             : en:Chapter 099 R: |4 B. s* d
01:11:58.333                             : en:Chapter 10
9 _- e5 L0 q2 _) {: n( N01:19:56.833                             : en:Chapter 11
- q% s( s8 k5 `" e01:28:41.625                             : en:Chapter 12
! `7 }: Y- a% x4 u
游客,查看本帖隐藏内容请回复 | 加入VIP可免积分免回复 了解详情 | 还不是会员:点击获取邀请码 Invitation Code

31

主题

4221

回帖

2万

积分

Sponsor

金币
3170 枚
体力
10204 点
QQ
shiji1973 发表于 2023-3-18 11:46:48 | 显示全部楼层
沙发是抢的而不是占的!2 ]# S% s9 J# |. L- m1 p  _
要想蓝光电影论坛发展好,资源多,就靠你我他!To the development of Blu-ray movies forum, resources and more depend on you and me!+ d$ z8 W6 ]0 a; X

本版积分规则

小黑屋|手机版|Archiver|4K蓝光论坛

GMT+8, 2024-6-21 09:01

Copyright © 2001-2021, Gadaddy Cloud.

快速回复 返回顶部 返回列表