BluRayCD Forum

 找回密码
 立即注册【分享大片】

QQ登录

只需一步,快速开始

查看: 60|回复: 3
收起左侧

[4K极清电影] 终结者5:创世纪 [4K REMUX美版] Terminator Genisys 2015 2160p US BluRaycd REMUX HEVC DTS-HD MA TrueHD 7.1 Atmos-FGT 64.32GB

[复制链接]
  • TA的每日心情
    慵懒
    2020-4-6 08:02
  • 签到天数: 615 天

    [LV.9]蓝盘精灵

    5355

    主题

    5710

    帖子

    6万

    积分

    Forum Moderator

    金币
    3615 枚
    体力
    25277 点

    卓越贡献勋章VIP蓝光勋章

    迅雷电影 发表于 2020-5-1 16:37:33 | 显示全部楼层 |阅读模式
    The year is 2029. John Connor, leader of the resistance continues the war against the machines. At the Los Angeles offensive, John's fears of the unknown future begin to emerge when TECOM spies reveal a new plot by SkyNet that will attack him from both fronts; past and future, and will ultimately change warfare forever.# q6 F+ Q6 {0 C; F: M) ], [% c9 H
    0 Z/ n2 q( z2 z  M4 W
    01.jpg ! Y1 Z3 n- Q( i2 _+ P
    4 ^4 `0 Y  ]" |$ E" R. C. Y* A9 h
    ◎译  名 终结者:创世纪/终结者5/未来战士:创世智能(港)/魔鬼终结者:创世契机(台)# v  M" A) I2 s- g
    ◎片  名 Terminator Genisys / Terminator 5 / Terminator: Genesis
    9 R; T9 X; P4 ]# @8 \) U+ d◎年  代 20152 |5 T  s  f/ M; M! n9 z2 c6 e
    ◎产  地 美国
    ) r4 |+ i# b3 L, E8 z4 t◎类  别 动作/科幻/冒险
    2 `/ H) M2 o* j5 i+ N% d+ S4 _◎语  言 英语8 \( A- M6 W6 i$ H- o, t5 u
    ◎上映日期 2015-07-01(美国)/2015-08-23(中国大陆)/ l$ F! v( l# v9 T! \  w5 b
    ◎IMDb评分 6.5/10 from 251,056 users+ }, o: a. {- d) l
    ◎IMDB链接 https://www.imdb.com/title/tt1340138/
    . }5 Z, |( @( @0 Y2 P( e% x0 V3 j; s◎豆瓣评分 6.9/10 from 125,397 users3 `  B. r0 Q% T; o- p: k4 ]
    ◎豆瓣链接 https://movie.douban.com/subject/3338862/- P3 m+ w* A8 ^" R3 |
    ◎文件格式 x265 + DTS + TrueHD
    * @0 `( B1 i6 o9 C$ d◎视频尺寸 3840 x 2160" U! h7 S4 Q, Y5 n5 I  S4 w
    ◎文件大小 1DVD 64.32 GiB2 o7 K1 x, j: I& L; r
    ◎片  长 2 h 5 min4 E& d7 d8 Q; _+ x
    ◎导  演 阿兰·泰勒 Alan Taylor& A9 ~2 K5 s& j7 ^! n& b  q
    ◎编  剧 莱塔·卡罗格里迪斯 Laeta Kalogridis. S- E# B$ ^8 Z4 Q( p; A
           帕特里克·卢西尔 Patrick Lussier
    . `! `  |3 F3 u: P       詹姆斯·卡梅隆 James Cameron
    ) P! ?/ S$ O9 ]% M       盖尔·安妮·赫德 Gale Anne Hurd7 o6 U9 M6 `) J
    ◎主  演 阿诺·施瓦辛格 Arnold Schwarzenegger2 s5 }1 B/ Q9 E( U8 ?2 L
          杰森·克拉克 Jason Clarke
    , f0 T! ~1 ~  b: r! }) W      艾米莉亚·克拉克 Emilia Clarke
    0 |# f- f# a9 \6 Z3 ~. X      杰·科特尼 Jai Courtney$ j1 G# P4 l1 l8 F- j
          J·K·西蒙斯 J.K. Simmons
    1 v% Z. |" U; v$ q# x  H9 t( I      戴奥·奥柯奈伊 Dayo Okeniyi
    9 E5 h( s: A3 H1 _; i9 u& L      马特·史密斯 Matt Smith
    3 V- q  U# T: Q3 k/ e0 D9 d      考特尼·万斯 Courtney B. Vance! B' U+ I: D: f$ D6 D
          李秉宪 Byeng-hun Lee& N+ e9 l3 H5 K
          迈克尔·盖拉迪斯 Michael J. X. Gladis; K; f! L2 l* N( c: J6 F
          何家蓓 Sandrine Holt
    & _+ j5 t. V  H" h. |( t. [( P      韦恩·巴斯楚普 Wayne Bastrup8 f& ^( o% K# B0 i6 [
          格雷戈里·艾伦·威廉斯 Gregory Alan Williams
    9 T, m/ C' x% y' G( i; \      奥托·桑切斯 Otto Sanchez) E/ ]3 H& G4 S: |0 ?* `
          马蒂·费拉罗 Matty Ferraro% Z; K7 Q: e$ S7 h. E2 L
          格里夫·弗斯特 Griff Furst
    2 ~( \6 S6 ^$ @! h" `      伊恩·埃瑟里奇 Ian Etheridge
    0 P* \/ C5 [& d5 \      诺兰·格罗斯 Nolan Gross: A% H( A0 H7 {9 [& M% p$ w% p
          塞思·梅里韦瑟 Seth Meriwether
    7 T4 J  |9 \8 ^7 e/ g  V      阿非莫·奥米拉 Afemo Omilami" l6 B3 O6 h0 Z/ v
          特瑞·韦伯 Teri Wyble
    & H$ Z. L% j' m0 B( U3 F+ E      凯莉·奥马利 Kerry O'Malley
    - F) F, }$ {+ M  B/ y- @& h. F+ l/ M
    ◎简  介  
    9 f  _' p# a0 r8 |' T8 c. }$ Y
    1 G/ \: n( z. r  ]! c" F4 n  When John Connor, leader of the human resistance, sends Sgt. Kyle Reese back to 1984 to protect Sarah Connor and safeguard the future, an unexpected turn of events creates a fractured timeline. * t" k  A$ Y( x2 |& `8 \

    # I) b5 p) G, L% o2 U+ ~/ U  天网拥有独立意识后,对创造它的人类展开血腥屠杀。此后的岁月,约翰·康纳率领战友和天网的机器人大军进行着旷日持久的战争。在关键的一次战役过后,天网将终结者派往1984年的洛杉矶,企图杀害约翰的妈妈莎拉。而约翰则将自己最亲密的战友——同时也是他的生身父亲凯尔·里斯派往过去。凯尔刚刚抵达洛杉矶便遭到液态金属终结者T-1000的袭击。与此同时,“老爹”则与莎拉联手干掉了终结者T-800。5 z. ]* i: c' ^% G; u
    8 ]# `! `8 `& t
      似乎过去的事情悄然改变,凯尔则从时间旅行中的遭遇得到灵感,与莎拉穿越来至2017年,尝试阻止天网的诞生……
    : [, l3 ?8 |9 w" v" `
    " M3 X, [6 s: c% q5 _5 M6 r8 |  The year is 2029. John Connor, leader of the resistance continues the war against the machines. At the Los Angeles offensive, John's fears of the unknown future begin to emerge when TECOM spies reveal a new plot by SkyNet that will attack him from both fronts; past and future, and will ultimately change warfare forever., P! `4 x6 c0 x3 T$ W9 Q

    % a1 M( M: V8 |$ A8 }% @; a◎获奖情况
    , ?9 s1 b" H) A8 @% R/ Y
    + F. E1 |5 L! ]$ m: o# c, z+ F8 M  第17届美国青少年选择奖  (2015)
    * U8 t% `4 P* t1 ]  最佳暑期电影(提名)4 j% [0 ?: z) q# I- S2 U; q
      最佳暑期电影女演员(提名) 艾米莉亚·克拉克' q0 q5 |) {9 T: _3 C. y4 o3 i
    + ~: n4 m8 T) h+ W0 T2 ]7 y
      第2届豆瓣电影年度榜单  (2015)
    % b4 L* |; j% H4 @  8月最受关注电影(提名)
    3 }: t) G* {/ ^5 J3 R  f! D. n
    Video #1
    - T; q( W2 m" w5 t) vID                                       : 1# F; r8 r9 d) V. K. g8 d/ ^
    Format                                   : HEVC1 E4 ]0 A2 ^! B7 \6 U0 Z
    Format/Info                              : High Efficiency Video Coding
    3 K  h* n' ]6 Q9 }Format profile                           : Main 10@L5.1@High; s5 C% d- j: d6 h
    HDR format                               : SMPTE ST 2086, HDR10 compatible
    ! {8 b4 Z) g9 s9 U1 ^. z& Z5 @Codec ID                                 : V_MPEGH/ISO/HEVC0 _2 D: Z, r: z- W" {0 d& B
    Duration                                 : 2 h 5 min5 R- j, V* x; Z2 }  w6 g5 V! L' w  ^7 `
    Bit rate                                 : 55.9 Mb/s  Y7 ?2 v. O, b+ f( Y$ u4 z; G8 q
    Width                                    : 3 840 pixels
    ! _4 q, ~: z# z* @+ O: w  V0 HHeight                                   : 2 160 pixels
    ! V# |6 {% H  [, R) p& E  RDisplay aspect ratio                     : 16:9' F$ n" u. V; @
    Frame rate mode                          : Constant
      P7 q: W" ^" z2 S* q8 w" c0 W+ \- [Frame rate                               : 23.976 (24000/1001/37687) FPS' M" G* B! d) k- j) y, I5 j
    Color space                              : YUV
    7 n1 z; `4 [  a# A- h; HChroma subsampling                       : 4:2:0 (Type 2)
    0 i& Q7 A2 ~/ E2 rBit depth                                : 10 bits
    4 S' A  K( }; N" U, UBits/(Pixel*Frame)                       : 0.2814 C$ O. h0 d4 Q
    Stream size                              : 49.1 GiB (76%)
    . {. K; ~7 j6 i+ QTitle                                    : Terminator.Genisys.2015.2160p.US.BluRayCD.REMUX.HEVC.DTS-HD.MA.TrueHD.7.1.Atmos-FGT
    9 z9 z, Z) {9 b; H  y# XLanguage                                 : English8 ?' {5 m) ]9 a, F
    Default                                  : No! [  C7 j0 o+ X6 }0 C$ S" ^# I
    Forced                                   : No' X' a+ w, `( R1 R8 H1 m
    Color range                              : Limited. C0 x8 n" D/ h9 G7 y! b4 @7 l
    Color primaries                          : BT.2020
    - M! k/ K; s$ B. \Transfer characteristics                 : PQ& H- C9 q" |/ }# T
    Matrix coefficients                      : BT.2020 non-constant2 B1 I) }& F; Z! G% C& R
    Mastering display color primaries        : Display P3) e' O: w5 p; q8 N
    Mastering display luminance              : min: 0.0001 cd/m2, max: 1000 cd/m20 y8 F$ R! g4 m

    ) R: p& i/ S/ R# LVideo #2
    5 L0 v6 @/ n, {$ @' \* oID                                       : 2
    + K! R! ]7 Q+ Z4 w* J+ cFormat                                   : HEVC
    3 k$ Z0 }( P8 Y( j) uFormat/Info                              : High Efficiency Video Coding) h: e& t" T0 i0 V9 a8 |
    Format profile                           : Main 10@L5.1@High1 A) F8 z* A- w0 S
    HDR format                               : SMPTE ST 2086, HDR10 compatible
    : J* E- Z! b( L+ ?# T- `Codec ID                                 : V_MPEGH/ISO/HEVC7 I5 U, S* t1 g# l6 \7 Q
    Duration                                 : 2 h 5 min
    1 y7 l0 m& ?% ~: i. dBit rate                                 : 5 659 kb/s
    - \9 J2 [/ t6 }+ E0 D8 M. k6 bWidth                                    : 1 920 pixels
    * A7 u# \$ C- }5 NHeight                                   : 1 080 pixels. X/ I( K" e" V
    Display aspect ratio                     : 16:9
    / `# D4 |7 J: x. j5 ~2 yFrame rate mode                          : Constant
    ) g# o# J, c( \7 aFrame rate                               : 23.976 (24000/1001/37687) FPS# n: O1 c! x! R+ ?7 r, b
    Color space                              : YUV) W6 b! k1 f+ U8 O- o+ r6 J
    Chroma subsampling                       : 4:2:0 (Type 2)
    1 @" p7 A" E2 e  wBit depth                                : 10 bits7 C  z1 J, z1 w& f) a
    Bits/(Pixel*Frame)                       : 0.114
    + h* v6 A9 Z" j) _5 G, ^1 u7 iStream size                              : 4.97 GiB (8%)
    , y1 y! t# d0 z( s$ w" oTitle                                    : Terminator.Genisys.2015.2160p.US.BluRaycd.REMUX.HEVC.DTS-HD.MA.TrueHD.7.1.Atmos-FGT
    " H* `7 e7 E" t- M. k: A3 z8 ULanguage                                 : English; z0 K8 M- ^# |6 F) {# _7 ^3 m
    Default                                  : No
      S% c" k0 m* B3 ^1 k. T( DForced                                   : No
    8 Q6 j" N; Q! \% T/ s- K6 QColor range                              : Limited* l  ~9 p, X' z: t1 d: a1 c' F  o- B
    Color primaries                          : BT.2020
    / V* |8 D- l0 `Transfer characteristics                 : PQ; }) X- V' ?( a! a( B
    Matrix coefficients                      : BT.2020 non-constant0 h& A6 l# j) s! X* N
    Mastering display color primaries        : Display P3
    & q: D9 D8 g6 Y: r, ^; cMastering display luminance              : min: 0.0001 cd/m2, max: 1000 cd/m22 S( N/ P+ g! Z! W# M$ G

    - y; `; R: j  ]. aAudio #1
    / r! |" @# s; @- J5 W' LID                                       : 3
    4 l1 C3 {1 K1 l8 M4 U" y# UFormat                                   : MLP FBA 16-ch
    : B) r3 r' ?! }; q2 `) z$ vFormat/Info                              : Meridian Lossless Packing FBA with 16-channel presentation
    ! N/ u5 f5 E" K# F$ Q  ACommercial name                          : Dolby TrueHD with Dolby Atmos% [- T* H: }1 F$ b
    Codec ID                                 : A_TRUEHD, F- W7 a: g0 u5 ~9 Y# l
    Duration                                 : 2 h 5 min
    - {- L( g6 C3 {Bit rate mode                            : Variable
    5 m: r2 O, F+ q& aBit rate                                 : 4 443 kb/s
    5 o2 U* V/ u4 wMaximum bit rate                         : 7 878 kb/s
    7 [2 ^( _$ ~3 JChannel(s)                               : 8 channels
    : C# O$ C& b! J- A# W2 K8 cChannel layout                           : L R C LFE Ls Rs Lb Rb- w. o' O. D  O+ {, k
    Sampling rate                            : 48.0 kHz5 Q% K; k5 A  Q6 X! V" f2 [
    Frame rate                               : 1 200.000 FPS (40 SPF)- L+ C6 ^# ?- p) G! T
    Compression mode                         : Lossless* b- M, z- i+ ~" U# D
    Stream size                              : 3.90 GiB (6%)
    6 @6 ^; ~6 |$ |; T( D) OTitle                                    : Terminator.Genisys.2015.2160p.US.BluRaycd.REMUX.HEVC.DTS-HD.MA.TrueHD.7.1.Atmos-FGT
    % C0 \+ A- |) M8 \: ^Language                                 : English. m: [* p. X' [& H
    Default                                  : Yes
    & N' D% l5 L& N) w8 ~! o/ \& aForced                                   : No7 D8 \* g. i2 B
    Number of dynamic objects                : 112 a, y+ p" s; s- g4 q
    Bed channel count                        : 1 channel
    $ ?9 X4 [; C! l' nBed channel configuration                : LFE' z& W3 M3 Z9 s: n! a

    % x4 O7 C" c2 W8 JAudio #2
    8 t: j* [- P+ U0 BID                                       : 49 A. }6 h3 C# K& k" I% f! u8 F
    Format                                   : DTS XLL
      f6 e/ y; f8 n- ?; QFormat/Info                              : Digital Theater Systems
    5 P1 x: R; R( k  s7 D* @: _2 oCommercial name                          : DTS-HD Master Audio
    4 ~- K3 ?$ h+ i, i4 d4 R* {+ @Codec ID                                 : A_DTS3 e; c1 h; N1 p- [/ R& n. D& T
    Duration                                 : 2 h 5 min
    $ B, `4 y9 T  x! \Bit rate mode                            : Variable
    " t/ @* D; P, h* [  nBit rate                                 : 3 901 kb/s
    3 Q/ R" x' m& U7 g* HChannel(s)                               : 8 channels
    ' g( d/ d; I2 i& q! g. ZChannel layout                           : C L R LFE Lb Rb Lss Rss
    * ?3 Z. \' |( y* gSampling rate                            : 48.0 kHz  c$ l2 ]! e) r) Y. F: O
    Frame rate                               : 93.750 FPS (512 SPF)
    2 p* N) X" {+ R2 RBit depth                                : 24 bits5 |; ]% J. U# b" W3 ?( Z4 ?
    Compression mode                         : Lossless! j, t1 s& o+ G& e, H' u( r5 x& t
    Stream size                              : 3.43 GiB (5%)
    " ^9 G9 P! Y- o4 S! E, S9 H; JTitle                                    : Terminator.Genisys.2015.2160p.US.BluRaycd.REMUX.HEVC.DTS-HD.MA.TrueHD.7.1.Atmos-FGT6 g- S# I+ h( ~
    Language                                 : English. d. x6 X. p! R. n
    Default                                  : No& B2 i+ ^5 R/ U5 d3 o8 D/ d9 |
    Forced                                   : No
    ( |; F: E, G7 q. [. ?3 ]& U  d  _* g. P( L2 }
    Audio #3
    9 f0 E3 }1 b7 i! c8 n) h) U$ X4 p, fID                                       : 5
    " G! u# C1 {: C; e9 v6 G* D  B% }0 E* pFormat                                   : AC-36 H5 }7 c6 z0 q, S6 n- I. J: y+ w: O
    Format/Info                              : Audio Coding 39 C% T! U5 F1 R/ K) u0 r5 a7 V
    Commercial name                          : Dolby Digital
    ! }" J. h/ k# ^7 t; A# D3 \# BCodec ID                                 : A_AC37 R! K/ s3 Z3 b
    Duration                                 : 2 h 5 min4 S. z1 S/ @0 h, g
    Bit rate mode                            : Constant
    4 {5 p5 o& ^- I' \0 cBit rate                                 : 640 kb/s
    - u$ R5 u7 @. |6 n; N; F2 L" K6 Z8 vChannel(s)                               : 6 channels+ Y7 Z; ], k. t. v
    Channel layout                           : L R C LFE Ls Rs& o4 X1 v, K/ N7 Y/ `9 F+ c
    Sampling rate                            : 48.0 kHz
    # x! G7 G+ F) a- Z$ ~6 _Frame rate                               : 31.250 FPS (1536 SPF)
    ' X; y+ l# T+ S; k/ }% `" JBit depth                                : 16 bits. ?1 K" i, I9 v+ i4 c9 y
    Compression mode                         : Lossy3 x& f  A3 N2 B! Y# X$ a0 f
    Stream size                              : 575 MiB (1%)) o! z* ^# O& o
    Title                                    : Terminator.Genisys.2015.2160p.US.BluRaycd.REMUX.HEVC.DTS-HD.MA.TrueHD.7.1.Atmos-FGT
    & {, P! P5 l6 B' Y9 }Language                                 : English
    3 E) t, |9 H- C5 X1 gService kind                             : Complete Main# ]  p; f1 r3 ]: ~
    Default                                  : No/ _) f4 B" _0 b
    Forced                                   : No
    - r: h: }; V+ W2 L' Z
    & k/ E. G1 q+ o# l! G, S, |8 @Audio #4
    ' W3 W( g  s. K* [: G5 }% pID                                       : 6# n$ ]% h2 c& _# L
    Format                                   : AC-3
    4 X+ P. K8 s6 [0 `Format/Info                              : Audio Coding 3' U0 O! @4 c! r* O, i- m- G9 q
    Commercial name                          : Dolby Digital
    9 S3 C& D3 I1 n  ?( VCodec ID                                 : A_AC3
    9 K$ G: S3 S0 e7 Q: iDuration                                 : 2 h 5 min: e% y: w* [: C/ ^2 p  d* b
    Bit rate mode                            : Constant" t: V2 S, d. |  b
    Bit rate                                 : 640 kb/s
    0 {" Z1 k6 J0 S" [' yChannel(s)                               : 6 channels# m( Q) [; O. \5 f
    Channel layout                           : L R C LFE Ls Rs  _  J4 p. f; T, u/ }# b" {
    Sampling rate                            : 48.0 kHz
    + Q: Z; \. c  i3 ^7 A- O3 LFrame rate                               : 31.250 FPS (1536 SPF)
    - f0 ~- v1 A4 G0 j8 o# F) NBit depth                                : 16 bits
    & m0 k  ]1 j+ S" `: H8 s! lCompression mode                         : Lossy
    ) V" {( \$ M& {$ y: z! u# KStream size                              : 575 MiB (1%)7 e! o: C! ^4 B! u
    Title                                    : Terminator.Genisys.2015.2160p.US.BluRaycd.REMUX.HEVC.DTS-HD.MA.TrueHD.7.1.Atmos-FGT
    * V3 |/ G* e3 W2 ELanguage                                 : French
    1 j) h4 n" U& I% O. d( F4 KService kind                             : Complete Main2 m% _; ]4 p- H, p
    Default                                  : No
    : H( r  Y8 t+ s1 ~Forced                                   : No0 P, \& L5 H! z$ i, n
    4 }3 s1 i, o0 D. W4 L% X
    Audio #52 I" \5 T: g, }
    ID                                       : 7  y9 @& n3 L  I/ G' `. J' d
    Format                                   : AC-3! s0 ~2 P* k. @) [+ i/ l" z! C
    Format/Info                              : Audio Coding 3
    1 \5 I+ U4 n' @: O' ?" J: PCommercial name                          : Dolby Digital
    , K3 v. z# e; _: a6 G- eCodec ID                                 : A_AC36 j+ n2 p, D5 z" j7 H+ L
    Duration                                 : 2 h 5 min# O- R7 D. @6 e: O8 `+ u+ E
    Bit rate mode                            : Constant
    , K+ ?5 n, B2 {+ I# F" a3 vBit rate                                 : 640 kb/s- p; D9 F* j/ S2 h: x( @
    Channel(s)                               : 6 channels  v3 A# L* t3 ^; g( ]9 A
    Channel layout                           : L R C LFE Ls Rs% a$ R& A8 A( @& k$ A; k
    Sampling rate                            : 48.0 kHz7 _) I% H3 e" ]' s- n& L4 b* W
    Frame rate                               : 31.250 FPS (1536 SPF)
    ' Y! X# V/ L  p7 D$ {2 D* FBit depth                                : 16 bits
    , W# I: O* G) ?: I8 wCompression mode                         : Lossy
    3 @# o" a8 [( Z0 J( l4 x9 {Stream size                              : 575 MiB (1%)
    ( i, u7 h  v) V5 q# ~$ ]Title                                    : Terminator.Genisys.2015.2160p.US.BluRaycd.REMUX.HEVC.DTS-HD.MA.TrueHD.7.1.Atmos-FGT
    : z9 t& n# b$ q8 h; DLanguage                                 : Spanish6 A) \% @+ y& S- s
    Service kind                             : Complete Main" v: w/ W% w4 p
    Default                                  : No3 [& `2 j2 i5 P* L/ C8 P. Y
    Forced                                   : No! m! S& L( W/ H6 b& R9 U2 {% D
    : L6 `& d) e9 _" N/ f, d
    Audio #6( E8 F5 x1 M2 w( K0 u& A
    ID                                       : 8
    ) @5 y  r5 `1 K' P$ E. [Format                                   : AC-3
    ' G6 h9 b5 z1 u2 ^8 @* G! Q6 DFormat/Info                              : Audio Coding 3" \; `) s7 u1 B
    Commercial name                          : Dolby Digital
    ( @; A( _" W3 Y' ACodec ID                                 : A_AC3" ?# C) e7 h1 A& r$ U
    Duration                                 : 2 h 5 min* `: q( l- V  O. n
    Bit rate mode                            : Constant( F" _- g) V8 V9 @! x5 {9 ?. D' t
    Bit rate                                 : 640 kb/s1 Q1 P4 W, J; u/ B. \" K9 X
    Channel(s)                               : 6 channels
    2 A% w8 I- L* V: p/ [; Q: P1 IChannel layout                           : L R C LFE Ls Rs
    ' `5 |$ u( I/ B9 M: l7 eSampling rate                            : 48.0 kHz4 K* G8 o# h5 T# U* V: C
    Frame rate                               : 31.250 FPS (1536 SPF)8 q4 e& k+ _0 s7 Z$ Q
    Bit depth                                : 16 bits
    ; J' x$ X0 _6 rCompression mode                         : Lossy
    $ Z* q# l5 c+ N# \- l* MStream size                              : 575 MiB (1%)! Y7 V1 S' {; o$ J  I! M
    Title                                    : Terminator.Genisys.2015.2160p.US.BluRaycd.REMUX.HEVC.DTS-HD.MA.TrueHD.7.1.Atmos-FGT! [' T; ]3 }3 G+ ?
    Language                                 : Portuguese
    0 u# Q# Z' q( |# fService kind                             : Complete Main
    0 `# ~+ A( M  [6 m! FDefault                                  : No0 m1 d+ \) v# p" |
    Forced                                   : No, n  A& I9 s9 g( s  z

    * C* V1 m6 m7 b2 J/ @$ @Audio #7; B* C; j2 N9 u  r0 p
    ID                                       : 9) O/ B8 u  A9 B+ N, G# @7 N$ E
    Format                                   : AC-3
    4 v2 s) ?6 f1 t, h/ tFormat/Info                              : Audio Coding 3
    - ]( o. z5 \5 @+ iCommercial name                          : Dolby Digital
    * Z4 `2 a$ y4 v8 ]$ b5 oCodec ID                                 : A_AC3. h+ \1 r, V) f: K
    Duration                                 : 2 h 5 min* v9 t, b9 f" Q0 k, K- u
    Bit rate mode                            : Constant
    % U# m3 e' n5 n5 }/ sBit rate                                 : 640 kb/s
    ; s2 h+ y! Q. X7 w' z! w; PChannel(s)                               : 6 channels" L7 }0 ]) K$ x4 k- P8 u) l
    Channel layout                           : L R C LFE Ls Rs
    5 }2 ^0 w3 |8 l1 a) o7 R. a5 JSampling rate                            : 48.0 kHz
    4 O) K, [+ R3 r' bFrame rate                               : 31.250 FPS (1536 SPF)
    2 R( W! O0 f' y, {$ `Bit depth                                : 16 bits
    , _* ]+ i2 g# D4 [8 a* R. {+ f" o  tCompression mode                         : Lossy( E: G+ L2 z' c' ?& B( g& B! X
    Stream size                              : 575 MiB (1%)
    7 f, {: ^  A2 N$ N/ Y" J- _Title                                    : Terminator.Genisys.2015.2160p.US.BluRaycd.REMUX.HEVC.DTS-HD.MA.TrueHD.7.1.Atmos-FGT2 t# l8 W; u& s: I
    Language                                 : English/ k! n2 _& B, x# s- ~) a
    Service kind                             : Complete Main0 F# A! |8 e7 b& o3 s  S; S
    Default                                  : No) y/ \9 x& r. n2 f2 a2 g+ O$ K
    Forced                                   : No
    2 }/ [# c$ S. {) [2 [; z# b3 @* g8 T. f  T4 o
    Text #1, ^' v# j+ ~$ A
    ID                                       : 10
    " J8 h" x- G" J, tFormat                                   : UTF-8
    - h9 l% l9 Y% V7 fCodec ID                                 : S_TEXT/UTF83 u7 b, @4 R1 H, s5 B
    Codec ID/Info                            : UTF-8 Plain Text" [2 ^' k$ A( U1 {& |
    Duration                                 : 1 h 56 min
    % g4 j5 N3 e4 Y) J2 ~Bit rate                                 : 47 b/s. T/ s4 E; r5 C- j
    Count of elements                        : 1337( r' `. g  _) S, k3 H" f' W# p% p/ k
    Stream size                              : 40.3 KiB (0%)
    ; |9 Q% I, {- t+ ]/ xTitle                                    : English-SRT
    4 |/ f2 Y# `3 BLanguage                                 : English6 n/ G0 t+ L) t8 a. g6 J4 g
    Default                                  : Yes. |/ l2 {% e6 ~+ o! `
    Forced                                   : No
    2 r, u7 o1 I3 c% ~5 ]
    : l) ?. K8 R5 V8 M  OText #2
    " n! o0 |! t& f: S9 ]7 JID                                       : 11
    $ j. m: M5 @! b' A+ ~9 |Format                                   : PGS' ]4 g) C. \! v9 D1 H
    Muxing mode                              : zlib
    # p, `- m- B2 V7 C0 b$ hCodec ID                                 : S_HDMV/PGS( ?4 _9 Z9 Z" y" g9 a7 j4 s
    Codec ID/Info                            : Picture based subtitle format used on BDs/HD-DVDs# ~6 k2 @) o/ M3 s- C
    Duration                                 : 1 h 56 min
    , s" i) J& c% z  ?. Z+ G8 MBit rate                                 : 29.1 kb/s9 y2 ]: R9 Z- s9 V. ]" J! V) @- L
    Count of elements                        : 2680
    ' U6 v/ A9 R. z  NStream size                              : 24.4 MiB (0%)% s- r# {! o" T, p
    Title                                    : English-PGS6 x6 Y8 G7 y( U  J: v, G
    Language                                 : English
    6 \# V( Y% L8 @2 ]; C+ _Default                                  : No/ f' f* {0 d4 j; o9 j% g
    Forced                                   : No
    & [6 Q2 G/ h+ a2 D! J
    " S) m5 Y1 O$ V6 i0 \Text #3
    0 [3 s/ B+ k, B' F3 q4 Q& U& \0 mID                                       : 127 s' S+ n: N) E  ?
    Format                                   : PGS
    7 a# _0 v- D5 d- ?9 MMuxing mode                              : zlib
    8 r6 O- I; G- ?" t/ b* p7 mCodec ID                                 : S_HDMV/PGS( B- H# c& g, ]7 m. s! j6 Y
    Codec ID/Info                            : Picture based subtitle format used on BDs/HD-DVDs$ H, _) @* u4 e& q4 _1 w. y1 t
    Duration                                 : 1 h 58 min
    : }, m+ d0 X: P( @1 YBit rate                                 : 32.7 kb/s5 {, H/ M! G9 g& ?
    Count of elements                        : 3212
    3 C. n$ W3 ^4 U! nStream size                              : 27.8 MiB (0%)
    : A4 t7 h8 M6 b) g# yTitle                                    : English-SDH-PGS
    4 t" a. y/ x& ]* ?. ^9 dLanguage                                 : English
      i8 X( S& l+ g* m) o7 l$ T" ]4 j0 eDefault                                  : No& H. y3 g  d; Q( T
    Forced                                   : No
    ; Q( P# e! r6 t6 k/ Z$ I; K3 q) U8 z
    Text #4
    0 z" K) C1 Z2 W/ l8 k- oID                                       : 132 b$ W# @+ a8 J% L
    Format                                   : PGS
    1 [( @  Y0 Z, {) P8 k& M% zMuxing mode                              : zlib* Z3 l( Y0 `$ p: s5 O9 i
    Codec ID                                 : S_HDMV/PGS9 U+ l# d) W. ?& S
    Codec ID/Info                            : Picture based subtitle format used on BDs/HD-DVDs3 R7 a$ X7 \+ K
    Duration                                 : 1 h 56 min% c; f! ~; E( x6 s  @9 j
    Bit rate                                 : 29.4 kb/s
    / W( }. x5 {. C$ D& TCount of elements                        : 2966( n# D8 _; }/ P5 Q- T
    Stream size                              : 24.6 MiB (0%)
    4 q) L* v, d, O- C0 f# ^Title                                    : French-PGS2 L7 a1 f7 t2 i
    Language                                 : French
    4 n$ C  e2 K+ [& aDefault                                  : No
    " L" U* S- Q, N0 C; K' N; |0 i7 mForced                                   : No
    ; W$ J! q! `& y9 r% v8 t0 ^+ ]; |
    Text #5: X9 _, B. w: Y+ B8 Y7 }
    ID                                       : 14
    + I. ^4 V) ^6 S. Z4 E$ AFormat                                   : PGS
    : p9 ?4 `4 k: d9 IMuxing mode                              : zlib
    5 f9 z8 S/ ]- F6 qCodec ID                                 : S_HDMV/PGS) g9 s( Y2 w. K- q; C
    Codec ID/Info                            : Picture based subtitle format used on BDs/HD-DVDs) q4 t" R6 Y' y) d! d8 X1 u
    Duration                                 : 1 h 35 min
    4 n# E" u+ _& G  ?, TBit rate                                 : 292 b/s
    ! |' _: l  W7 P* T, J9 |0 F' S9 zCount of elements                        : 22
    4 a4 ]4 ^) o" Y* s8 f% ~6 h4 kStream size                              : 203 KiB (0%)
    . n% n! d! |, u$ |Title                                    : French-FORCED-PGS
    , n. O& z3 |0 S5 l3 K& }6 f  GLanguage                                 : French
    - T% r: n1 x: t% S4 V( Q7 s3 LDefault                                  : No
    # q2 k% v* ~; ^* H- |Forced                                   : No1 L0 f& l( i# V: a; k) {( g
    6 z. z# P2 s% ]$ N4 g
    Text #6
    # Z4 c! W" T" G' Q+ }8 dID                                       : 15
    6 g2 K( @6 ^' R' DFormat                                   : PGS
    0 X$ d; t. m" y# [Muxing mode                              : zlib/ B. x1 \; \' E2 P% |5 ~; N
    Codec ID                                 : S_HDMV/PGS
    8 \. Q* I) ?! @8 cCodec ID/Info                            : Picture based subtitle format used on BDs/HD-DVDs$ v3 C) q: M$ F% n9 i7 W) V
    Duration                                 : 1 h 56 min
    6 C8 B- |. X. c  r, \' M$ lBit rate                                 : 27.6 kb/s, u+ Q' ~" D# I# H" ?
    Count of elements                        : 25721 h- C1 K0 j: \4 F
    Stream size                              : 23.1 MiB (0%)
    # [# B! H9 B3 C$ y; h* k0 P5 H. s  M3 dTitle                                    : Spanish-PGS6 \- ^/ [( r& @2 @3 B: Y
    Language                                 : Spanish0 P) j# C7 q9 B. f4 X) I9 g0 l
    Default                                  : No+ R0 ~+ C+ {6 M8 D6 L3 g
    Forced                                   : No
    8 X8 H1 c/ x6 r5 t$ j
    4 p, k$ t. J4 X, Y# T" }: FText #71 Z: B& D1 [* J& a" W, D
    ID                                       : 16
    * Z: G0 g) j0 S  MFormat                                   : PGS
    2 P! H% K  G3 o2 e- ?8 jMuxing mode                              : zlib
    ; ]  _9 J1 f  CCodec ID                                 : S_HDMV/PGS7 k) g/ i; b1 }& @; {/ e6 ?" s
    Codec ID/Info                            : Picture based subtitle format used on BDs/HD-DVDs% K4 y% c" h: T$ m  V# Z7 l
    Duration                                 : 1 h 35 min8 z/ P5 S" g3 \( U* Q4 }0 F
    Bit rate                                 : 305 b/s0 D3 r. E& f6 s
    Count of elements                        : 24
    ) [, ]0 j' X" E& R) ZStream size                              : 212 KiB (0%)
    * F6 M& E; `9 c  }$ TTitle                                    : Spanish-FORCED-PGS# a% M6 e# o' e4 g$ x9 m
    Language                                 : Spanish
    ) G: |5 l, G/ ?, _) q3 y, ]" I2 bDefault                                  : No
    5 y- {7 D  R$ U# B7 N: z& N4 OForced                                   : No
      s5 F4 k) n: M1 X. _3 ]8 p6 B. w+ E
    5 Y0 [8 J" f$ o2 WText #8
    5 {: i( q4 f. aID                                       : 17
    8 o3 ]* M4 w, B% PFormat                                   : PGS$ f+ _. |: ~7 I1 H# ^9 R# f
    Muxing mode                              : zlib
    ! D5 L9 T6 {4 W, h* UCodec ID                                 : S_HDMV/PGS
    * v8 C8 ]: ?: F- SCodec ID/Info                            : Picture based subtitle format used on BDs/HD-DVDs
    ) b6 d2 n! P: L+ H& aDuration                                 : 1 h 56 min
    " v8 o# W, m3 C8 I7 JBit rate                                 : 24.8 kb/s
    & _/ v5 [) i8 e/ Y2 e* x# fCount of elements                        : 2574. b5 H1 m* \9 ~/ ^7 F
    Stream size                              : 20.7 MiB (0%)
    4 @  g8 p: x. e3 n" {" FTitle                                    : Portuguese-PGS
    . X' g3 S# y' n- i" N' FLanguage                                 : Portuguese
    # D. l3 s& l& P1 W2 j- e9 zDefault                                  : No+ V( X' ]2 {+ T& v1 H+ k
    Forced                                   : No$ R3 j- A! K/ f- M. Z
    3 [' I6 U5 e$ n5 a% [! F; U& M
    Text #9; a) L9 G9 m# `4 w
    ID                                       : 18& m/ y* ^& b+ `8 ^6 T
    Format                                   : PGS' m, R* P8 \" d# |# Z: a
    Muxing mode                              : zlib
    % c5 {* u. Y9 l* F1 `" ZCodec ID                                 : S_HDMV/PGS
    3 p3 c* `; y; c/ `1 v2 C2 qCodec ID/Info                            : Picture based subtitle format used on BDs/HD-DVDs
    : ^# i! s/ `' i" QDuration                                 : 1 h 40 min
    8 |/ j! g6 \5 @8 d- e3 aBit rate                                 : 272 b/s
    6 l; b2 f! C- z0 [Count of elements                        : 22
    # E; \* p) E: [& MStream size                              : 201 KiB (0%)
    1 s! D2 ]) y+ Q7 y2 e* L) WTitle                                    : Portuguese-FORCED-PGS
    & r% O% j# g2 G& e& g9 v8 T/ `/ {Language                                 : Portuguese
    - [' j7 M' h( r. s$ i, nDefault                                  : No
    6 X/ I$ {; |% x1 ?2 PForced                                   : No* S% D1 a0 y' d& M( A

    + f7 Y$ s: ]: z. R1 ^; UMenu* s; E' d6 b) D* \- v3 B, u2 I: U
    00:00:00.000                             : en:Chapter 01
    ' C0 ?: W$ V3 l3 i' |' J00:07:40.334                             : en:Chapter 026 V, r' F$ g6 [4 }/ Y: r
    00:14:20.734                             : en:Chapter 03
    ; O. t7 p0 W2 W) s0 K  p+ j00:20:31.521                             : en:Chapter 04) i% K# \2 f9 n; T
    00:27:48.416                             : en:Chapter 05
    & `& D& s3 t( ~: @( Y00:34:54.634                             : en:Chapter 06, w: x* F% T! B# T7 J: F
    00:41:02.626                             : en:Chapter 078 Y% N  J) W( }& d% Q8 @
    00:46:28.786                             : en:Chapter 08
    3 y7 n  N0 z* G7 x* Z2 Y: W00:53:05.182                             : en:Chapter 09
    1 V" }2 \5 Z* Q$ |01:00:59.989                             : en:Chapter 10
    2 i5 L9 c4 c  @+ z01:08:22.389                             : en:Chapter 11
    ' k) k0 [9 G6 M2 H: ^01:14:43.812                             : en:Chapter 12# D& Y: G$ J/ P, w8 T
    01:21:31.219                             : en:Chapter 13
    , @7 V+ ^4 H! U/ a01:31:01.706                             : en:Chapter 14
    ) N% e9 E" q  E& q! z$ S01:38:42.374                             : en:Chapter 15' A$ A/ `0 {& D- I5 _' E
    01:45:41.084                             : en:Chapter 167 w: g$ u3 i- X& z+ ~& I0 n0 [
    01:52:48.970                             : en:Chapter 172 I4 s0 E$ N: C# |0 O- q& I
    01:58:00.114                             : en:Chapter 18

    " K9 m$ b# X6 k* I4 u% s
    + f! Z; K" f; U& Y. n& s/ ^
    游客,查看本帖隐藏内容请回复 | 加入VIP贵宾组可免积分免回复下载 立即了解 | 还不是会员:点击获取邀请码 Invitation Code
  • TA的每日心情
    奋斗
    2 小时前
  • 签到天数: 73 天

    [LV.6]常住蓝盘

    6

    主题

    1131

    帖子

    6075

    积分

    Sponsor

    金币
    760 枚
    体力
    3049 点
    QQ
    shiji1973 发表于 2020-5-2 11:00:03 | 显示全部楼层
    感谢分享精彩电影
  • TA的每日心情
    开心
    5 天前
  • 签到天数: 33 天

    [LV.5]暂住蓝盘

    35

    主题

    850

    帖子

    3252

    积分

    Sponsor

    金币
    364 枚
    体力
    1134 点
    lanpanshuma 发表于 2020-5-2 14:21:16 | 显示全部楼层
    啥也不说了,楼主就是给力!( H2 h0 H' V3 _: X/ X% ?1 e; Z1 D1 j
    I love your Blu-ray movies Forum!
    ; Y' i' I- R4 C
    该会员没有 ...
  • TA的每日心情
    擦汗
    2020-4-15 16:32
  • 签到天数: 2 天

    [LV.1]初来蓝盘

    0

    主题

    576

    帖子

    2779

    积分

    Sponsor

    金币
    4 枚
    体力
    1574 点
    xpg050811 发表于 2020-5-3 13:16:11 | 显示全部楼层
    啥也不说了,楼主就是给力!
    ) n. j4 T2 \# r" [2 \In fact, I have always felt that the landlord of good taste! Ha ha!% }& ?3 j" u0 Z* V$ S+ B

    本版积分规则

    小黑屋|Archiver|蓝光电影资源网

    GMT+8, 2020-6-2 13:48

    快速回复 返回顶部 返回列表