BluRayCD Forum

 找回密码
 立即注册【分享大片】
查看: 12|回复: 0
收起左侧

[2160P极清] 逃出白垩纪 [4K HDR高码版 自带中字] 65 2023 2160p UHD BluRaycd x265 10bit HDR TrueHD 7.1 Atmos-B0MBARDiERS 15.28GB

[复制链接]

8994

主题

172

回帖

9万

积分

Post Share

金币
2773 枚
体力
27651 点

卓越贡献勋章

黄金嫖客 发表于 2023-5-30 08:04:18 | 显示全部楼层 |阅读模式
8 H2 J6 C- C' n4 m
3 Y0 y" w: z6 J% x
◎片  名 65  
2 }0 R/ x4 h3 u" l. `% L◎译  名 逃出白垩纪/65:绝境逃生(港)/65:恐怖行星(台)
7 F1 Y: R! u  \2 D: s! j# q◎年  代 2023) R7 A) t& ~% _- f
◎产  地 美国/加拿大$ d6 e; A6 L$ v6 P
◎类  别 动作/科幻/惊悚/冒险! {* I3 L" A! ?$ r. @% Y
◎语  言 英语% m4 ?( |- D- g* m( a! t$ T
◎上映日期 2023-03-31(中国大陆)/2023-03-08(以色列)/2023-03-10(美国)
# |9 ]& n) P3 Z- P# L# ^9 d◎IMDb评分  5.4/10 from 44,131 users: z' @4 k: w4 u# n) s
◎IMDb链接  https://www.imdb.com/title/tt12261776/& O) \8 f* Z9 A# e8 ~7 Y- F
◎豆瓣评分 4.5/10 from 8,365 users0 t1 m' Q. A: V  A: j5 u9 q
◎豆瓣链接 https://movie.douban.com/subject/35197766/& P. D! t. ~9 J
◎片  长 1 h 32 min
* h$ J/ F3 q7 d' J+ U4 u◎导  演 斯科特·贝克 Scott Beck
& F% S  P/ V1 N  G' e( s% z       布莱恩·伍兹 Bryan Woods7 i$ r6 U1 V0 ]6 r) ^# P  t- `
◎编  剧 斯科特·贝克 Scott Beck# ]5 ]9 \  x3 ?! u
       布莱恩·伍兹 Bryan Woods* Z; P# j, s0 U0 b& A. H
◎音  乐 丹尼·艾夫曼 Danny Elfman: [% J. L7 V; k3 i' S$ Q
       克里斯·贝肯 Chris Bacon5 e4 Y8 H4 Y5 e; H
◎主  演 亚当·德赖弗 Adam Driver
/ V0 j6 s* o0 n6 \! M. a       阿丽亚娜·格林布拉特 Ariana Greenblatt
2 H! [. w  _( I$ j$ Y& i       克洛伊·科尔曼 Chloe Coleman
$ F6 D6 [' y9 H5 L* a0 Q" o; c       妮卡·金 Nika King
; H: j" U# R" s- y' x       布莱恩·达尔 Brian Dare# C; U1 S% z# R) H
* ]" A2 s) x# H7 y- |
◎简  介4 u9 B4 T0 u. }- {
$ R6 _- e" w0 o( \5 S8 G6 R. U
  飞船坠毁在未知的星球上,飞行员米尔斯(亚当·德赖弗 Adam Driver 饰)发现自己竟被困在了6500万年前的地球上。此时只有一个获救的机会,他和另一位仅有的幸存者寇娅(阿丽亚娜·格林布拉特 Ariana Greenblatt 饰)要在这片充满危险史前生物的未知环境中极限求生。
; V8 K& p5 |" B, c
* r% s& R- B" c! X, d" V, k5 i  An astronaut crash lands on a mysterious planet only to discover he's not alone.1 v7 }8 g6 @) k0 t9 e3 y
65.2023.2160p.UHD.BluRayCD.x265.10bit.HDR.TrueHD.7.1.Atmos-B0MBARDiERS 15.28 GB
: @8 b) @2 S* s! F; v) M# K, i' I( t1 Z/ ]/ v( f
Video! c  Y7 q$ R' }1 h0 M  M" W0 w
ID : 1
' ^$ K, I$ J8 v& V  bFormat : HEVC
; r0 e. e* v# r+ gFormat/Info : High Efficiency Video Coding
, S; n# G: W2 j  rFormat profile : Main 10@L5.1@High
5 B+ A0 X) @7 s9 T, h7 LHDR format : Dolby Vision, Version 1.0, dvhe.08.06, BL+RPU, HDR10 compatible / SMPTE ST 2086, HDR10 compatible- o# u2 g, m  [- A7 N3 f1 j
Codec ID : V_MPEGH/ISO/HEVC: R) A% W5 p: e
Duration : 1 h 32 min
2 G3 i% p" m: H& {Bit rate : 18.5 Mb/s
( L7 T/ u' f7 `Width : 3 840 pixels
, ]5 L/ Q+ A1 X4 P) p$ W! Z+ sHeight : 1 608 pixels# e' @' B4 h0 b# O5 R1 r3 t
Display aspect ratio : 2.40:1% G( [: D  g3 s: i) P
Frame rate mode : Constant
" Z* k% {1 m9 E! M5 ZFrame rate : 23.976 (24000/1001) FPS
+ M% m/ A) |/ ]Color space : YUV5 K, c4 ~& M, t/ S) h
Chroma subsampling : 4:2:0 (Type 2)
1 c1 d- q5 i. i3 ?; IBit depth : 10 bits
8 y2 Y) y- u* }8 n* B& ?8 ABits/(Pixel*Frame) : 0.125$ M, v3 S# l. A/ S
Stream size : 12.0 GiB (79%)
; Q8 E4 C; t- U) R! E  cWriting library : x265 3.5+102-34532bda1:[Windows][GCC 13.1.0][64 bit] 10bit
: p: z. I: o5 F. `' PEncoding settings : cpuid=1111039 / frame-threads=5 / numa-pools=36 / wpp / no-pmode / no-pme / no-psnr / no-ssim / log-level=2 / input-csp=1 / input-res=3840x1608 / interlace=0 / total-frames=133368 / level-idc=51 / high-tier=1 / uhd-bd=0 / ref=4 / no-allow-non-conformance / repeat-headers / annexb / aud / no-eob / no-eos / hrd / info / hash=0 / temporal-layers=0 / no-open-gop / min-keyint=23 / keyint=250 / gop-lookahead=0 / bframes=4 / b-adapt=2 / b-pyramid / bframe-bias=0 / rc-lookahead=25 / lookahead-slices=4 / scenecut=40 / no-hist-scenecut / radl=0 / no-splice / no-intra-refresh / ctu=64 / min-cu-size=8 / rect / no-amp / max-tu-size=32 / tu-inter-depth=1 / tu-intra-depth=1 / limit-tu=0 / rdoq-level=2 / dynamic-rd=0.00 / no-ssim-rd / signhide / no-tskip / nr-intra=0 / nr-inter=0 / no-constrained-intra / strong-intra-smoothing / max-merge=3 / limit-refs=3 / limit-modes / me=3 / subme=3 / merange=57 / temporal-mvp / no-frame-dup / no-hme / weightp / no-weightb / no-analyze-src-pics / deblock=-3:-3 / no-sao / no-sao-non-deblock / rd=4 / selective-sao=0 / no-early-skip / rskip / no-fast-intra / no-tskip-fast / no-cu-lossless / no-b-intra / no-splitrd-skip / rdpenalty=0 / psy-rd=2.00 / psy-rdoq=1.00 / no-rd-refine / no-lossless / cbqpoffs=0 / crqpoffs=0 / rc=crf / crf=13.0 / qcomp=0.60 / qpstep=4 / stats-write=0 / stats-read=0 / vbv-maxrate=160000 / vbv-bufsize=160000 / vbv-init=0.9 / min-vbv-fullness=50.0 / max-vbv-fullness=80.0 / crf-max=0.0 / crf-min=0.0 / ipratio=1.40 / pbratio=1.30 / aq-mode=2 / aq-strength=1.00 / cutree / zone-count=0 / no-strict-cbr / qg-size=32 / no-rc-grain / qpmax=69 / qpmin=0 / no-const-vbv / sar=1 / overscan=0 / videoformat=5 / range=0 / colorprim=9 / transfer=16 / colormatrix=9 / chromaloc=1 / chromaloc-top=2 / chromaloc-bottom=2 / display-window=0 / master-display=G(13250,34500)B(7500,3000)R(34000,16000)WP(15635,16450)L(10000000,1) / cll=970,340 / min-luma=0 / max-luma=1023 / log2-max-poc-lsb=8 / vui-timing-info / vui-hrd-info / slices=1 / no-opt-qp-pps / no-opt-ref-list-length-pps / no-multi-pass-opt-rps / scenecut-bias=0.05 / no-opt-cu-delta-qp / no-aq-motion / hdr10 / hdr10-opt / no-dhdr10-opt / no-idr-recovery-sei / analysis-reuse-level=0 / analysis-save-reuse-level=0 / analysis-load-reuse-level=0 / scale-factor=0 / refine-intra=0 / refine-inter=0 / refine-mv=1 / refine-ctu-distortion=0 / no-limit-sao / ctu-info=0 / no-lowpass-dct / refine-analysis-type=0 / copy-pic=1 / max-ausize-factor=1.0 / no-dynamic-refine / no-single-sei / no-hevc-aq / no-svt / no-field / qp-adaptation-range=1.00 / scenecut-aware-qp=0conformance-window-offsets / right=0 / bottom=0 / decoder-max-rate=0 / no-vbv-live-multi-pass / no-mcstf / no-sbrc- F( A- {8 @3 K
Default : Yes
6 a5 h) `7 Y- x" IForced : No1 W" z; C/ u" y  {
Color range : Limited
; _- N0 L. C) ^( G9 z, SColor primaries : BT.2020. Y2 f, m/ J  k6 w
Transfer characteristics : PQ
4 m( V8 t) R3 T& T/ [' wMatrix coefficients : BT.2020 non-constant- v0 v, L+ y9 |% m* r* h# @
Mastering display color primaries : Display P3
; |0 A# T' N: S) |3 s0 `& BMastering display luminance : min: 0.0001 cd/m2, max: 1000 cd/m2
+ v. s* C7 J, O! O: N) j& c. a% C( JMaximum Content Light Level : 970 cd/m2
" h7 a8 ]' n4 V( N6 JMaximum Frame-Average Light Level : 340 cd/m2
' A1 }+ k2 a* Q9 ?: [0 I% n7 Z/ H# N1 b
Audio #1
! @* _; S$ e4 \) g# a8 \3 |ID : 2
. M3 w, ~, w  N& o! O2 H/ N. XFormat : MLP FBA 16-ch
0 w- d& y2 y" T' Y! N, h# FFormat/Info : Meridian Lossless Packing FBA with 16-channel presentation; u. \% B7 x" R
Commercial name : Dolby TrueHD with Dolby Atmos
! }) q8 Y( M0 k8 {7 M9 ~* ~Codec ID : A_TRUEHD1 H* T% E1 G% y' D
Duration : 1 h 32 min/ O! l5 [! B8 b/ o6 ^8 e6 s+ G
Bit rate mode : Variable5 A8 [0 H9 b# e5 f9 h  \1 Z$ C
Bit rate : 4 304 kb/s
! F. o+ ?- n2 Q' w0 FMaximum bit rate : 7 248 kb/s( @2 s$ y- B8 E! f- Y& l7 }3 v4 V
Channel(s) : 8 channels' X8 W' y5 M0 u9 F# _% Z% D# C
Channel layout : L R C LFE Ls Rs Lb Rb
+ D' L  ?8 i2 RSampling rate : 48.0 kHz9 Q8 g! {' s! H) I+ t" Q
Frame rate : 1 200.000 FPS (40 SPF)
0 Y( l; x* N$ b7 Z/ H# JCompression mode : Lossless4 U; T4 i1 ?9 y3 e0 Y
Stream size : 2.79 GiB (18%)
7 N5 R' s) k: m6 ]$ d5 CLanguage : English
3 B# T: J, ^+ ~. \0 m$ EDefault : Yes# q' }8 C: _* T2 }1 i  a1 T% }
Forced : No* s) |3 T0 D8 T) Q5 r  \
Number of dynamic objects : 11
- f$ m& D, k6 H  h4 @1 ]% i6 y& EBed channel count : 1 channel
' [6 K$ ~: @. CBed channel configuration : LFE0 {& c, J8 g" t' F

" n( Y6 h* Y( w: k! sAudio #2! v: i/ h! N. J! l0 x" r
ID : 3
3 h, _! Z( U8 f/ B, n, q. _; ^Format : AC-3' ]; a) B3 H3 U
Format/Info : Audio Coding 3
# _0 E) y& b5 tCommercial name : Dolby Digital
9 R8 R! p. E! @: m& n+ WCodec ID : A_AC3  \0 c5 K& }4 u1 G
Duration : 1 h 32 min
0 ^1 g0 Z/ W5 p6 aBit rate mode : Constant5 Y, B8 n2 W+ \) Y6 J
Bit rate : 640 kb/s$ p2 P" l( b! q2 M
Channel(s) : 6 channels6 _* z5 I% J0 B5 ]3 q! ~1 H3 |, s- f
Channel layout : L R C LFE Ls Rs
$ q( C: Q' N5 t* ~Sampling rate : 48.0 kHz7 C# x1 b+ l/ D& \
Frame rate : 31.250 FPS (1536 SPF)( r0 Z  d0 `6 m7 a1 c" r! ]
Compression mode : Lossy* G/ p; {: }5 z( w5 ?) e
Stream size : 424 MiB (3%)* e  ~! O# O, O) ?5 B7 V1 [
Language : English' z# J/ m; {- w- r1 `5 }2 e
Service kind : Complete Main
! q9 f9 ^- d5 a3 B# i+ D, YDefault : Yes
4 F$ ]. \/ H( e3 SForced : No. W, ?8 S* M( z6 C5 H

. i# g: u& g0 E) [Text #1/ N2 g# j1 J0 U& E+ G8 r
ID : 4
0 n; F1 S# y4 Q* rFormat : PGS0 A* t. t& N8 D% G0 ]
Muxing mode : zlib+ i( C3 A1 i7 \
Codec ID : S_HDMV/PGS% _2 h- O/ z' F! T& l4 f
Codec ID/Info : Picture based subtitle format used on BDs/HD-DVDs, R( L. x9 d% ?8 z3 I/ u
Duration : 1 h 28 min
) s4 K3 ]/ t3 _* _/ r: n# pBit rate : 18.4 kb/s" s+ t6 W/ t1 i; w
Frame rate : 0.311 FPS( W3 {& B0 S6 K& b) y- M
Count of elements : 1655
8 A+ T0 }. }) b/ `1 KStream size : 11.7 MiB (0%)
' e: b+ L' X9 [7 {& u9 x& k* hTitle : English SDH& \9 |- Q" I& v+ r) d4 K. D
Language : English
$ L5 N, h! t/ \! n2 }! W2 [! hDefault : No3 x) H8 K0 ?2 O* G
Forced : No
5 U0 Z. S6 h$ G0 ^) a* K; u* H
( z. h. U% E9 iText #2
' R8 I& I" g, n3 b# PID : 5# n- l0 G( z0 ^: U  L! t
Format : PGS
3 P8 b# ^0 n- v: X0 Q# e  kMuxing mode : zlib  G) ^( c) i1 u1 n* c
Codec ID : S_HDMV/PGS) J" p2 B: z' J# E
Codec ID/Info : Picture based subtitle format used on BDs/HD-DVDs0 ]' f, d) |& w3 J- ~3 u$ c% M
Duration : 1 h 22 min; e9 X; G+ h" R& p! V/ Q0 [
Bit rate : 8 775 b/s7 c6 R/ o; |2 x; M3 }
Frame rate : 0.146 FPS
1 j& x: ^3 j+ \" ?- RCount of elements : 722
) E9 O0 y: @% aStream size : 5.17 MiB (0%)( W7 j& n7 h* p- P
Title : English
# ^6 b8 U/ ?! q2 P) [Language : English+ {- A6 z4 B/ c  `3 Y
Default : No
. |' D; e. ]% UForced : No1 ^' ~& k: j4 U5 n/ T' Q. u$ R

! O" E: l2 w( ~# z" uText #3
8 F& u0 ]# x0 Z5 f1 J9 ^/ PID : 60 K: r- S5 S. j9 l. G
Format : PGS
& y9 |5 c6 z* nMuxing mode : zlib
, T; `1 I/ i- b: YCodec ID : S_HDMV/PGS# U% q6 n* V5 s1 h
Codec ID/Info : Picture based subtitle format used on BDs/HD-DVDs  |# J% Y+ G/ F9 \6 @* k
Duration : 1 h 31 min
  M5 G# A* C4 l  s' g% TBit rate : 6 326 b/s
9 g7 o4 i- W5 @' b& PFrame rate : 0.141 FPS( w, M: F& c9 H$ w% p
Count of elements : 770
6 I4 E8 a, q4 P9 aStream size : 4.12 MiB (0%)
7 v& |7 ^) j6 Q2 ^5 }Title : Chinese5 }# m1 @' y) {# O
Language : Chinese) z; {+ G: ~2 |' l% `+ y/ ?
Default : No' p: B  [0 g# z! m/ r0 x! n
Forced : No( N+ R/ M, d; W; r2 t) k
+ L5 w. u- J8 n- z6 g6 c! D
Text #4) d5 q4 U; |4 n3 U+ J7 l
ID : 7- J, J2 Q8 O( z1 M6 ~- s3 r% t
Format : PGS
0 O' x' ~0 M" K; P; ^( O! m) MMuxing mode : zlib
- o) X; l3 F8 H- K7 T5 WCodec ID : S_HDMV/PGS9 m' }( q8 h9 m% x5 G$ N
Codec ID/Info : Picture based subtitle format used on BDs/HD-DVDs# f3 H& B# c; i: l: b- K
Duration : 1 h 31 min
$ _- V0 c$ X8 ?' b1 L; eBit rate : 6 694 b/s; j9 J" q( Q8 |% J- y( i, l
Frame rate : 0.135 FPS
* S: |2 R2 N. }# y3 g# [* fCount of elements : 738
9 x) v" I% I8 C; A7 @+ [Stream size : 4.36 MiB (0%)" {7 v3 N+ C! J1 G7 I
Title : Chinese3 V3 q4 A- T& f0 Q
Language : Chinese- V5 B% i3 c! |/ `& ?! q$ ^
Default : No4 G( e: s5 O+ ^+ V; M( }
Forced : No5 z1 f# c9 E% h2 H: _
1 m+ W7 d+ b4 H' |/ D$ F' o; g
Text #5' T! r. `9 H! D0 `& j& v# w! d" H* K
ID : 8
8 t7 n0 O0 f; ~- t9 C4 s+ KFormat : PGS4 J( y' T( A0 i0 ^+ F) V& T
Muxing mode : zlib- P6 I0 M! y3 v4 S) ^  u: f* I
Codec ID : S_HDMV/PGS
- o! d# s1 U; c7 P. h% ACodec ID/Info : Picture based subtitle format used on BDs/HD-DVDs
" L% ~2 M* v% X1 P1 B: w9 y/ }Duration : 1 h 31 min8 H; }+ d  R+ ]  s" o- R
Bit rate : 7 655 b/s
; _) Q: W3 Q7 O! d+ n, _5 n7 M( rFrame rate : 0.124 FPS: X: k9 H5 j$ Q4 N( b+ n/ t
Count of elements : 678
& t' m5 G: ?6 u0 N/ n) c6 g+ VStream size : 4.99 MiB (0%)$ T3 G; j6 j5 }0 l. ^2 u) N% _2 O
Title : French2 T8 C0 Q, z" o9 n+ U- Z
Language : French
: |4 e* q# y# I/ [Default : No, ^- K$ o. g4 Z
Forced : No
: q+ ?3 P! _$ p% E7 M
. H7 ], `+ H5 n0 j* RText #6+ G8 `" J2 }- W( {& c
ID : 9
/ v- Y3 w9 K6 T+ k" sFormat : PGS1 ]$ @' |* Y$ D; q9 @+ k; q
Muxing mode : zlib
+ `) g8 m  z/ KCodec ID : S_HDMV/PGS/ {( ]& `$ m1 o7 T1 t
Codec ID/Info : Picture based subtitle format used on BDs/HD-DVDs- ^. \/ A" M$ z! A: w
Duration : 1 h 31 min
6 u, G% i9 \9 k( uBit rate : 5 686 b/s
5 ], u) p2 M' T) h$ SFrame rate : 0.142 FPS8 P8 e0 U3 H+ l/ e
Count of elements : 776
9 @3 @! q0 u' v: wStream size : 3.70 MiB (0%)
: u! G0 A: n$ b# ?+ yTitle : Korean
$ E  n. d; S! l# F: aLanguage : Korean; _. X" \7 L' v! Z4 E/ q9 J
Default : No0 S8 S! D8 n7 }, Z5 I7 R
Forced : No
9 W- k0 L" ?; z
5 k4 I" h0 C/ ^6 N$ FText #7
, y1 U  ]% |4 e6 H" DID : 10
! x* F. x# ]- D1 E4 N% `0 iFormat : PGS
' `- ^/ O' E+ s  c# CMuxing mode : zlib: s# p, q3 Q. h, Y
Codec ID : S_HDMV/PGS$ }6 e0 U. M- |" X5 K) s
Codec ID/Info : Picture based subtitle format used on BDs/HD-DVDs
) w! q; Z3 K2 {! g+ r) gDuration : 1 h 31 min
; q! @/ C: J" a) }& sBit rate : 8 334 b/s
! f, a6 @8 f' J' v" y4 N# ^- cFrame rate : 0.139 FPS0 m1 Y% o2 G7 A3 D6 C1 r) H9 Z; H
Count of elements : 758
2 F  [* A2 O) d) U$ a) EStream size : 5.43 MiB (0%)
2 ~2 u4 i7 `- @Title : Portuguese* d  r# ]9 [( `3 r' O7 b" t& p
Language : Portuguese
& Q1 ]# p) y* ]. e! e3 e: c- x6 _Default : No
) @5 n7 o0 ~! B# VForced : No7 ]" i. D6 [: b" v# c8 G
: M. K& @3 ^+ G" N  q6 u
Text #8) X! F, Y  ]& d8 {, g7 B
ID : 11, {! v! G+ X( O0 o5 @# R/ @
Format : PGS
6 B# [& T( ?$ a1 N  ?Muxing mode : zlib! c" q, a4 j, V# H% y3 k1 Y
Codec ID : S_HDMV/PGS  w! U* A# ]$ o2 E9 T% S
Codec ID/Info : Picture based subtitle format used on BDs/HD-DVDs# m5 `; K8 A& O
Duration : 1 h 31 min( L3 I& {. q& R* k6 M8 U5 [
Bit rate : 7 958 b/s
- a! }1 ~# E0 e6 r2 C3 ~/ SFrame rate : 0.141 FPS
5 r/ G1 l/ @6 m" w( t1 z  U' Y6 A; ]8 SCount of elements : 770) |  m8 J  r  X: h0 s& |
Stream size : 5.19 MiB (0%), r" Z' ^, I( k9 r& s& e. t
Title : Spanish
  P2 x" h! q0 V) p: uLanguage : Spanish
, F/ m( B: M$ d1 L* I6 F" b6 NDefault : No8 _+ I( o2 n# Q- V
Forced : No/ F" r* J9 g, {" S5 Z5 P6 n" N

: \/ x! ]# j+ h, F  lText #93 ~% Q2 l: n* w8 F
ID : 127 w" |) d8 T6 o. l* n$ c# O
Format : PGS
& R; m# |& P7 g& r/ Q* D4 y  _Muxing mode : zlib8 x% S4 T& `* [( R
Codec ID : S_HDMV/PGS
! k$ X! [9 ~5 o  ^Codec ID/Info : Picture based subtitle format used on BDs/HD-DVDs
5 I, [; q9 B0 i- v6 _5 tDuration : 1 h 31 min2 l% z$ S  s/ e
Bit rate : 7 696 b/s
/ _$ b! Z: W9 H1 d: b1 `& {Frame rate : 0.140 FPS% b. [1 e* H9 }( k  z2 _
Count of elements : 766- Z" q. w7 O4 O0 e" c
Stream size : 5.02 MiB (0%)
) J! \/ K: N! i# i1 P5 JTitle : Thai3 s+ s0 `7 `: S7 Q  S# H3 ^8 [
Language : Thai
0 ~' l( k# b+ l, L0 o$ IDefault : No
4 U' k# {) Q3 `Forced : No
) U0 g: |( S; g" T1 ^: G5 f
# A; S/ \/ P7 W6 H8 RText #10+ w$ E3 g2 {2 u/ J
ID : 13
) p0 L) P; {! n  y8 iFormat : PGS' M% v; C; w) O1 |" m$ r
Muxing mode : zlib1 ?6 v9 u2 w9 D5 l% O) Q3 f
Codec ID : S_HDMV/PGS
1 J+ A( _" ?+ r& c5 YCodec ID/Info : Picture based subtitle format used on BDs/HD-DVDs" q5 V9 G8 `' N9 ^/ m
Duration : 15 min 44 s4 _; K, T6 \, M6 `) M. a
Bit rate : 1 301 b/s, O* Q# C# {7 t# C
Frame rate : 0.017 FPS/ X( d- s$ k' G( y, W, P
Count of elements : 16
$ Z" \8 F) D2 o# |: }Stream size : 150 KiB (0%)
/ z5 [: R; ?! NTitle : French  W1 v6 s9 I  W* T7 V
Language : French
( B1 ?" p+ G- L8 g# c$ }* TDefault : No
3 J4 v. w! P" x. d/ s3 C. q5 [Forced : No
/ I( O! ^6 q; ^- ~, Y- j( C5 Z( f! u7 `- X; j( A, K
Menu
6 k4 M( P  X: S2 w2 y6 d' |, L$ E" D00:00:00.000 : en:Chapter 01* F" H+ z0 H9 G* U. r/ J
00:04:55.879 : en:Chapter 02
0 G, V7 O9 g3 B00:11:46.581 : en:Chapter 03
. W, ~7 I4 F: d" L3 K& C00:16:42.210 : en:Chapter 04( U( E6 B$ Z/ w/ W0 n
00:20:27.518 : en:Chapter 059 Z" o" n/ h* K# d' u
00:26:56.573 : en:Chapter 06# S& X# u* R+ i5 e0 r
00:31:01.943 : en:Chapter 07
2 G: s* l) g- @" t5 _00:36:01.534 : en:Chapter 08
: M9 F  k  W: ^  `2 f+ ]00:41:30.988 : en:Chapter 09; I0 `7 G* o, l9 ]) n* i
00:46:17.525 : en:Chapter 10
; I) D9 `6 j9 X3 @. ^1 I2 g00:50:10.758 : en:Chapter 11
. v6 T6 K8 l" V4 O" a00:55:04.009 : en:Chapter 12' a6 V, y; I( e  n9 V/ i. v$ |
01:02:08.683 : en:Chapter 130 Z: g7 Z( \: A8 D
01:07:20.578 : en:Chapter 146 ?8 y: E! j* O2 ?& ?* E: d
01:14:33.052 : en:Chapter 158 W% t9 F! P- N5 w  P6 X
01:23:18.994 : en:Chapter 16

- P7 b8 K( V  Z" B
游客,查看本帖隐藏内容请回复 | 加入VIP可免积分免回复 了解详情 | 还不是会员:点击获取邀请码 Invitation Code

本版积分规则

小黑屋|手机版|Archiver|4K蓝光论坛

GMT+8, 2024-4-24 04:53

Copyright © 2001-2021, Gadaddy Cloud.

快速回复 返回顶部 返回列表