BluRayCD Forum

 找回密码
 立即注册【分享大片】
查看: 36|回复: 2
收起左侧

[2160P极清] 逃出白垩纪 [4K SDR高码版] 65 2023 2160p BluRaycd x265 10bit & 8bit SDR DTS-HD MA TrueHD 7.1 Atmos-SWTYBLZ 20.76GB & 22.22GB

[复制链接]

8994

主题

172

回帖

9万

积分

Post Share

金币
2773 枚
体力
27651 点

卓越贡献勋章

黄金嫖客 发表于 2023-5-30 08:15:44 | 显示全部楼层 |阅读模式
01.jpg 4 T* b2 x' b3 n  D, P) h

; ?6 o6 N7 A7 h! l$ m: J◎片  名 65  , |0 h' T( L7 l9 b* {6 }+ x: w
◎译  名 逃出白垩纪/65:恐怖行星(台)/65:绝境逃生(港)
6 f$ D6 o! E) E◎年  代 20238 x5 A# ?/ G7 j2 X/ l2 m
◎产  地 美国/加拿大
1 b+ W6 i0 J* F6 ^◎类  别 动作/科幻/惊悚/冒险
, @  J- W, l" ~  M' `; I◎语  言 英语; W9 _8 Q. e/ i
◎上映日期 2023-03-31(中国大陆)/2023-03-08(以色列)/2023-03-10(美国)
* p1 \* Q6 `+ I$ K; W◎IMDb评分  5.4/10 from 44,131 users
) N. ^; K9 k. n◎IMDb链接  https://www.imdb.com/title/tt12261776/
, {% d9 Y# w% Y' L/ P/ j◎豆瓣评分 4.5/10 from 8,365 users
$ I- \. ^/ H6 H# h: ^% [◎豆瓣链接 https://movie.douban.com/subject/35197766/
+ E. p( r9 K- f7 A) o( E◎片  长 1 h 32 min
8 N- N8 P: y) @8 c◎导  演 斯科特·贝克 Scott Beck. R- l1 v# P6 `- a  _6 Y
       布莱恩·伍兹 Bryan Woods
3 ?/ f4 r' w+ V# s◎编  剧 斯科特·贝克 Scott Beck% m: Z1 }+ Z' t
       布莱恩·伍兹 Bryan Woods; c! t' \& @' T2 _) b+ r: N
◎音  乐 丹尼·艾夫曼 Danny Elfman6 k8 a1 x5 @' ~5 a! x
       克里斯·贝肯 Chris Bacon
7 g& x" r4 v; \◎主  演 亚当·德赖弗 Adam Driver
. B3 q: Z9 o& E& H  d       阿丽亚娜·格林布拉特 Ariana Greenblatt! h+ {, i* s* U* S. X4 O0 e
       克洛伊·科尔曼 Chloe Coleman
; T, K" ^0 P' L9 k# y       妮卡·金 Nika King1 t  c& v, v4 J% M5 h
       布莱恩·达尔 Brian Dare
, q2 z# G; @1 a$ k8 i: Z% g! \9 }+ C7 n
◎简  介. e% m- p; f* b! \
- P) d; Q% N5 Z) z
  飞船坠毁在未知的星球上,飞行员米尔斯(亚当·德赖弗 Adam Driver 饰)发现自己竟被困在了6500万年前的地球上。此时只有一个获救的机会,他和另一位仅有的幸存者寇娅(阿丽亚娜·格林布拉特 Ariana Greenblatt 饰)要在这片充满危险史前生物的未知环境中极限求生。8 O1 D5 C" f3 H+ k: p& O$ `

3 T8 U4 F" {# i' E! W4 e+ j  An astronaut crash lands on a mysterious planet only to discover he's not alone.
# D+ T9 g' j% s6 ~' U! W; [$ G/ C8 {4 w" V) I1 o$ N
SWEATY BALLZ presents
: r1 v- u; H: a+ ]2 l# ~
& x" b; n: b. ]5 @# L3 [/ m% X65.2023.2160p.BluRayCD.x265.10bit.SDR.DTS-HD.MA.TrueHD.7.1.Atmos-SWTYBLZ 20.76 GB
6 }3 ~. U2 V# Y5 ]Converted from 10 bit HDR to 10 bit SDR using tripple mixed Hable-Reinhard-JJ per scene+frame analysis algorithm
6 y/ N* @. b" BScreenshots are 8bit SDR$ j2 |3 C$ C" Z+ m( n" H: h1 r, S

) n- ~. V9 \2 D( nVideo
/ b) Z" j8 l0 B  Q% c0 b' TID : 1
6 ^5 Y) X8 ?/ i$ CFormat : HEVC
: B/ y+ g' ]! V, c3 Q5 }7 N$ ]Format/Info : High Efficiency Video Coding, }( z5 n  R; |2 g, [; H" b
Format profile : Main 10@L5.1@High0 `; O5 j! h+ |1 M5 j
Codec ID : V_MPEGH/ISO/HEVC
5 _7 w& k4 ^- H3 Z% qDuration : 1 h 32 min0 h4 D' w$ B, t6 q
Bit rate : 22.9 Mb/s
6 i3 V& ^6 V  ]. `9 J  BWidth : 3 840 pixels
0 G# Y! _1 T2 r& j' f- J8 [Height : 1 608 pixels3 I) _% R- w5 Q; ^" w# d. j
Display aspect ratio : 2.40:1
; U- f: q" b: o0 N! @# s, h. [Frame rate mode : Constant
' Z6 D8 S9 x1 E) UFrame rate : 23.976 (24000/1001) FPS
. |" ~7 ^$ W% q  MColor space : YUV
# u4 ~9 j/ P7 q  D. v* IChroma subsampling : 4:2:0) |' l, S( L$ ]. b3 ?( M( y; [1 W( V
Bit depth : 10 bits3 F9 `8 S0 c0 H' u: h+ Z6 h6 V( y
Bits/(Pixel*Frame) : 0.154( U7 D# |2 L; g! ^3 U$ x/ H
Stream size : 14.8 GiB (72%)
) ~; |5 E5 K* d6 V; z, F" ~: i- M/ sWriting library : x265 3.0+1-ed72af837053:[Windows][GCC 8.2.0][64 bit] 10bit
  \, @6 ~" E$ {- a6 Q8 p# W! _Encoding settings : cpuid=1111039 / frame-threads=6 / numa-pools=40 / wpp / no-pmode / no-pme / no-psnr / no-ssim / log-level=2 / input-csp=1 / input-res=3840x1608 / interlace=0 / total-frames=133368 / level-idc=51 / high-tier=1 / uhd-bd=0 / ref=3 / no-allow-non-conformance / repeat-headers / annexb / aud / hrd / info / hash=0 / no-temporal-layers / no-open-gop / min-keyint=1 / keyint=24 / gop-lookahead=0 / bframes=4 / b-adapt=2 / b-pyramid / bframe-bias=0 / rc-lookahead=25 / lookahead-slices=4 / scenecut=40 / radl=0 / no-splice / no-intra-refresh / ctu=64 / min-cu-size=8 / no-rect / no-amp / max-tu-size=32 / tu-inter-depth=1 / tu-intra-depth=1 / limit-tu=0 / rdoq-level=0 / dynamic-rd=0.00 / no-ssim-rd / signhide / no-tskip / nr-intra=0 / nr-inter=0 / no-constrained-intra / strong-intra-smoothing / max-merge=2 / limit-refs=3 / no-limit-modes / me=1 / subme=2 / merange=57 / temporal-mvp / weightp / no-weightb / no-analyze-src-pics / deblock=0:0 / no-sao / no-sao-non-deblock / rd=3 / no-early-skip / rskip / no-fast-intra / no-tskip-fast / no-cu-lossless / no-b-intra / no-splitrd-skip / rdpenalty=0 / psy-rd=2.00 / psy-rdoq=0.00 / no-rd-refine / no-lossless / cbqpoffs=0 / crqpoffs=0 / rc=crf / crf=16.0 / qcomp=0.60 / qpstep=4 / stats-write=0 / stats-read=0 / vbv-maxrate=160000 / vbv-bufsize=160000 / vbv-init=0.9 / crf-max=0.0 / crf-min=0.0 / ipratio=1.40 / pbratio=1.30 / aq-mode=1 / aq-strength=1.00 / cutree / zone-count=0 / no-strict-cbr / qg-size=32 / no-rc-grain / qpmax=69 / qpmin=0 / no-const-vbv / sar=1 / overscan=0 / videoformat=5 / range=0 / colorprim=2 / transfer=2 / colormatrix=2 / chromaloc=0 / display-window=0 / max-cll=0,0 / min-luma=0 / max-luma=1023 / log2-max-poc-lsb=8 / vui-timing-info / vui-hrd-info / slices=1 / opt-qp-pps / opt-ref-list-length-pps / no-multi-pass-opt-rps / scenecut-bias=0.05 / no-opt-cu-delta-qp / no-aq-motion / no-hdr / no-hdr-opt / no-dhdr10-opt / no-idr-recovery-sei / analysis-reuse-level=5 / scale-factor=0 / refine-intra=0 / refine-inter=0 / refine-mv=0 / refine-ctu-distortion=0 / no-limit-sao / ctu-info=0 / no-lowpass-dct / refine-analysis-type=0 / copy-pic=1 / max-ausize-factor=1.0 / no-dynamic-refine / no-single-sei / no-hevc-aq / qp-adaptation-range=1.00
9 H' t/ s9 H& D: \Default : Yes
3 M+ n8 f5 E; dForced : No
( S4 @& @8 l7 A
9 p+ W; r7 b/ |, T0 `! G2 M$ oAudio #1
  I; ]4 l& k& fID : 2) \; y  o& Q$ h' u2 I& s6 @
ID in the original source medium : 4352 (0x1100)
. T! z7 a3 R; G# Z2 B; {Format : MLP FBA 16-ch' @+ Z( I' n3 B
Format/Info : Meridian Lossless Packing FBA with 16-channel presentation5 O  k$ E0 b! }: w/ v
Commercial name : Dolby TrueHD with Dolby Atmos
/ @1 B9 E- j& b' d+ D# DCodec ID : A_TRUEHD2 q4 [; z+ n# T/ J  N  c
Duration : 1 h 32 min+ S. v  k& ]. m1 ?, i& {
Bit rate mode : Variable
! J9 y7 [( U/ ?  I9 H. L: l3 Q' sBit rate : 4 304 kb/s
- A2 N* ~7 M. S8 h) KMaximum bit rate : 7 248 kb/s9 F: d9 M* O6 S* K# u% ~
Channel(s) : 8 channels2 {9 i6 I6 x1 N8 V. M- Z- g
Channel layout : L R C LFE Ls Rs Lb Rb. Q/ `3 o$ n5 K! u, Y/ z
Sampling rate : 48.0 kHz
8 c. u& f0 ]' y! k% `" C: X/ f: NFrame rate : 1 200.000 FPS (40 SPF)
' c0 @" C9 O. QBit depth : 24 bits
( t3 g( s$ d) H3 Y9 N% s5 p' a) I/ ]Compression mode : Lossless
. t2 D4 n; c3 k5 W  D8 oStream size : 2.79 GiB (14%)
! C/ w& p$ O" q% CTitle : TrueHD 7.1 Atmos; z# d5 `+ o9 }! T' h1 V
Language : English
3 F9 z2 r! q0 s: l* t6 T6 ^Default : Yes5 b1 Z4 Z- l4 ^! G9 N. K
Forced : No
5 E6 k7 _; [1 ?/ OOriginal source medium : Blu-ray- p7 `! B  y# }# Q  }
Number of dynamic objects : 11
& H9 c# @1 B7 A* ^! Q) `Bed channel count : 1 channel* Y3 g) F5 J/ k
Bed channel configuration : LFE
% q  M7 k9 x+ }& _9 Y3 H4 d. Y, M/ i! {/ A1 L
Audio #2
% g$ q# D9 C5 k0 }6 y5 G+ eID : 3
1 Z7 j7 }* V! }5 PFormat : DTS XLL- j( D! Q* {6 B1 V1 Z/ X
Format/Info : Digital Theater Systems6 P9 a7 W+ D2 p
Commercial name : DTS-HD Master Audio- @0 i& r# k- ~' N( }
Codec ID : A_DTS
+ \9 L  _: k7 Y( s; o% VDuration : 1 h 32 min% n" a+ m3 w* B6 |4 a9 G
Bit rate mode : Variable) h. m/ P4 u9 c
Bit rate : 3 957 kb/s
9 V4 \2 P: \' J- {! BChannel(s) : 8 channels
4 M( m5 ~$ h, W. c) i- EChannel layout : C L R LFE Lb Rb Lss Rss6 y! d9 K2 ?( r% R6 d9 j
Sampling rate : 48.0 kHz- J4 z! w1 y2 C& A# B8 Y# |
Frame rate : 93.750 FPS (512 SPF)! T) Q" U& a! q; D1 @4 O% z
Bit depth : 24 bits
& V: ]7 Z) [4 F; u( d0 _Compression mode : Lossless
7 x# o8 B, e; b0 zStream size : 2.56 GiB (12%)
9 {/ _* r: @5 H. t- qTitle : DTS-HD MA 7.1
  P# g% w9 D3 l% r- ~2 KLanguage : English
- t) h' n8 L- I" WDefault : No
) c6 ]; ]6 ^* i" mForced : No9 b$ K& _" M+ [, p2 z, v

) ^# J! f) h5 Y9 ?* x5 {Audio #3
7 N& _1 M, D% F: Q- sID : 4
. g" ?0 c$ x3 j0 {  V1 b& LID in the original source medium : 4352 (0x1100), d1 a0 t! `$ l; `) d9 g6 v5 p0 [; Z: j  ~
Format : AC-31 c; P& y- R. ~$ I' P- }
Format/Info : Audio Coding 3
' z1 a1 T1 Y- O- VCommercial name : Dolby Digital6 w4 G3 ^, B$ D- ^- V" `- X
Codec ID : A_AC39 V* f* \+ e5 U) |* z
Duration : 1 h 32 min
7 m+ y2 X9 c4 K: i- C6 h8 mBit rate mode : Constant
# r+ ?8 O7 q: l8 _, E; j1 R6 oBit rate : 640 kb/s
: X, L, G1 n1 i( |Channel(s) : 6 channels+ C+ z0 Z4 @" j7 c5 a, `
Channel layout : L R C LFE Ls Rs! c0 @; N) ~/ O$ s0 y: G
Sampling rate : 48.0 kHz. y0 ]6 z* Q9 @& b- Q
Frame rate : 31.250 FPS (1536 SPF)# t. X* H  ^1 ~  M
Compression mode : Lossy3 R7 T  u! U/ z$ p& \. _
Stream size : 424 MiB (2%)" r; E& Q) p% ~3 p
Title : DD 5.1. ~( i0 o8 C: o8 I5 O+ O
Language : English; B2 Q/ n2 ]: b+ `
Service kind : Complete Main
5 ^0 B0 _& \# |$ y4 [! m/ wDefault : No
+ C! o5 g2 e1 h  X! y. V# ?Forced : No! [2 ?" q) X- q5 r. S9 [
Original source medium : Blu-ray0 i5 b6 s' A" a

& h0 H6 t; ?; g. `" F$ M) j0 \Text #1
9 ^  t! Z/ Q9 A4 u$ _  t4 ~* v  vID : 5
. R" f6 Y" q$ o& }$ o4 @Format : UTF-8: D( }; K  B5 p  p- a
Codec ID : S_TEXT/UTF8  g  p$ A% Y9 b  y7 J6 C$ u- S+ ?9 g
Codec ID/Info : UTF-8 Plain Text
" I* Y# ^; [( FDuration : 1 h 22 min3 Z: ]3 s9 R. z3 P( E* w& K
Bit rate : 13 b/s. a) k8 P  z3 b& z% }1 [
Frame rate : 0.068 FPS
8 p" s" C$ w1 b6 c. A7 ZCount of elements : 334
1 E/ o8 O! ]* x" jStream size : 8.16 KiB (0%)
3 K, u4 [1 Z+ B: \4 E& b1 eLanguage : English, H$ Y+ R6 j, `( o7 v
Default : Yes
) H& R  d; X0 D2 z$ NForced : No
+ G- g( ^/ E5 G4 B' i+ }/ Z. A* }' N$ \& T4 {: ~8 G
Text #29 L' Y  x' R7 M, b% j
ID : 6
7 r3 m4 F' p% Z. K6 X: `! nFormat : UTF-87 e0 [. k3 v  G2 ~/ B
Codec ID : S_TEXT/UTF88 M% F% }4 I7 [6 W3 L- T& T
Codec ID/Info : UTF-8 Plain Text
2 m6 g# F' u' x" B  c" LDuration : 1 h 28 min0 `5 O7 o  R, y: Q: \2 n
Bit rate : 26 b/s
0 P/ _# D, s, F8 p& e  S9 I+ iFrame rate : 0.150 FPS
" y) w! A# v$ ?5 `% GCount of elements : 796
/ M5 _7 i9 }, b( QStream size : 17.5 KiB (0%)
4 g: B) W/ M0 L" w7 w8 X7 ?" xTitle : SDH
8 Z3 H/ N- i# d6 `5 ~- OLanguage : English
- N5 |: x' B0 S& ~" qDefault : No, h2 W& x+ j/ b7 m) X' ]  T% w0 B# @; l
Forced : No
3 y% Q' ^/ l" U+ s' S% s3 R
; A. p5 X- I& rText #37 `5 ]4 N( G8 L0 ]7 ?$ y0 u5 p
ID : 7
7 Y) r- R3 @  t/ f' G' vID in the original source medium : 4768 (0x12A0)4 N$ k" y! @  b& f: |( D" E  E
Format : PGS1 b, \( ~) }; v3 x" u
Muxing mode : zlib
# C, h) X1 z' N& DCodec ID : S_HDMV/PGS( J! T8 S* p9 t2 x; X
Codec ID/Info : Picture based subtitle format used on BDs/HD-DVDs
+ J2 C# A" y- y8 iDuration : 1 h 28 min5 R8 p# K0 T" u8 ?- ]! C
Bit rate : 18.4 kb/s8 o. L; i; g! w6 K8 B
Frame rate : 0.311 FPS% c7 b7 r& w( S/ g
Count of elements : 1654
% w% h  ?: p5 W7 ?$ {5 m4 oStream size : 11.6 MiB (0%)9 J; v4 B& f7 m
Language : English
7 p* ^: R# k1 t. z7 f- LDefault : No
/ g, M' b0 S4 Y/ C8 |/ oForced : No
* p+ {7 x" d% ~+ H/ I1 I+ v  \3 {Original source medium : Blu-ray
& S# g+ M* c! I5 w# J  y( D2 V  e6 R3 ~. Q
Text #46 s( n9 x4 n  a9 s2 i+ x' u
ID : 8( _7 ^5 b6 x# N( g( l( q/ L: i
ID in the original source medium : 4769 (0x12A1)
- C0 p' Q( U* h. ~6 [Format : PGS
, u! }3 z! w' Z: E) S  I1 lMuxing mode : zlib
3 l% s6 D9 a# K* y3 eCodec ID : S_HDMV/PGS0 g4 W: q2 u- F& {0 P
Codec ID/Info : Picture based subtitle format used on BDs/HD-DVDs, i/ g4 ?" T/ p$ l$ G
Duration : 1 h 22 min
; @/ r, E9 k; D1 m- VBit rate : 8 775 b/s
5 `3 i8 a& h7 \% a5 OFrame rate : 0.146 FPS
6 x7 D8 B+ ]: F1 F+ F1 vCount of elements : 722
$ i3 v. o9 a& `  `6 i# ~Stream size : 5.17 MiB (0%)
# q. b4 P) e1 N$ P9 q4 p* VLanguage : English  }" W, t' S# \+ l6 v' z
Default : No
; P8 N# ^" e# [1 B; eForced : No" H* l3 K- p. x7 y; w
Original source medium : Blu-ray# t. _5 ?% }/ ?9 e

; S2 ^8 S  W! z& P0 R- n/ cText #5- J, F  E% y$ p0 g: g" O2 ~6 C
ID : 9
3 F6 o3 y# i% g7 O" ZID in the original source medium : 4772 (0x12A4)
2 D2 }3 B4 F' e- `$ K) qFormat : PGS: Q! A* N7 X0 b6 _
Muxing mode : zlib
' w  ]3 v( Y* S  W( v* VCodec ID : S_HDMV/PGS9 t2 H8 M" g5 B  S9 g0 r, |* V* u
Codec ID/Info : Picture based subtitle format used on BDs/HD-DVDs' O4 [( t- z, Y  ^- x1 @* S* J
Duration : 1 h 31 min
9 d1 r+ U/ C9 t! @* i$ l6 _$ lBit rate : 7 655 b/s! r- u5 O6 x$ P1 N- P, X6 t
Frame rate : 0.124 FPS
" v& x% O/ ?! c/ T9 ?0 uCount of elements : 678
9 ~, H" q2 {% mStream size : 4.99 MiB (0%)9 H% c. a4 @" w. t# H2 C
Language : French
0 V- c5 ^2 R: \' }+ b+ ^3 zDefault : No9 K" Y1 Z( M. u; c
Forced : No
: w9 `0 t* l  fOriginal source medium : Blu-ray
& T6 o1 j2 F' N
  f4 W. u% `6 x# Y0 J/ z- s; GText #65 h, [: h# e/ A$ |
ID : 108 O2 P* d" v& ~& p5 l1 p3 P
ID in the original source medium : 4773 (0x12A5)
' W1 J6 w7 P  w* U2 \; z1 dFormat : PGS
* m5 C% N/ ^. b9 w* s/ s+ y0 ~Muxing mode : zlib" X! o) c. X% |$ y
Codec ID : S_HDMV/PGS# B$ [2 P6 g; h( s* L% @  H, j' z: p7 ^
Codec ID/Info : Picture based subtitle format used on BDs/HD-DVDs! K1 i8 O$ Y0 R- N' [/ b# Q3 S3 E
Duration : 1 h 31 min2 w7 W) F) v9 K+ k! b: _# e
Bit rate : 5 686 b/s0 _2 D* `8 `, c% N: R# d
Frame rate : 0.142 FPS
) L5 y: M6 m. w# JCount of elements : 7761 g7 c2 F' [7 |9 ]7 v
Stream size : 3.70 MiB (0%)
- V. S5 d5 i4 ELanguage : Korean
2 f" E8 P6 ~! e9 pDefault : No0 r9 m* ^& p  q. [
Forced : No
- i6 C& Q7 I+ `Original source medium : Blu-ray
4 N. v) {! t0 V" u6 V0 }! T. e2 @: [5 `% D; X  r4 u
Text #7
  ^$ ?4 P9 Q% [) D; }ID : 11
1 |, \5 T+ e0 ~ID in the original source medium : 4774 (0x12A6). L" A8 N4 J) w1 i# A) ]: o
Format : PGS
, p8 c1 H4 l% k5 Z; r" K  }Muxing mode : zlib
( p5 W3 t- C0 _/ iCodec ID : S_HDMV/PGS
  j9 r$ ]% p( F+ y& WCodec ID/Info : Picture based subtitle format used on BDs/HD-DVDs6 P4 m( F1 y' O1 E" |
Duration : 1 h 31 min3 V! n1 T" C+ _( _+ F: \4 s
Bit rate : 8 334 b/s2 x7 C6 r6 j7 B7 o
Frame rate : 0.139 FPS
4 X3 V* U  _8 Z" n5 Z6 [+ i( TCount of elements : 758- }" ]" Z2 @" ]. t$ w" m4 \3 p" ?
Stream size : 5.43 MiB (0%)( E9 H7 I' D- G0 d  |5 y
Language : Portuguese
  o. l, v/ [8 ]5 r8 G, YDefault : No. P6 _: ]: v1 _+ f  I) }9 B( H
Forced : No- C* k, Y0 E, O0 J0 Y
Original source medium : Blu-ray
7 ^# S& F1 B3 E3 K. k( U5 X, j( P: y; Q* r* g
Text #8
" o5 p/ l: s* G0 FID : 12
- K+ r/ z3 {  j8 a- n. ^ID in the original source medium : 4774 (0x12A6)
+ w; L/ l7 W! I9 X, Q. TFormat : PGS5 ?1 g2 p  Q; e8 C$ G
Muxing mode : zlib
  \+ u  d6 }2 Z' x/ \Codec ID : S_HDMV/PGS  m: c2 i5 V4 ?. K
Codec ID/Info : Picture based subtitle format used on BDs/HD-DVDs; a& O& h; W8 v  o
Duration : 1 h 31 min
# ]( Z  Q( G* H( P0 FBit rate : 245 b/s
9 J( h; c1 J& Q  M, B* H& z! C( }Frame rate : 0.003 FPS0 S- V: F! t1 F# v( b
Count of elements : 16" k& m; L7 d7 K% Y& U  c- b/ \( K
Stream size : 164 KiB (0%)7 d: h3 W# k4 _  `$ c5 B; }, W
Language : Portuguese9 y9 V- }9 E" Y& ?, k' l, E4 X- T
Default : No
5 F. L; U' z7 D0 `  F: q; YForced : No
. H6 O* T' w) v4 UOriginal source medium : Blu-ray
  I$ V9 I: `2 a3 X# ]8 H$ p7 d. W! ]: B4 ^
3 D" b1 Y0 Y  ]* L0 r7 o8 m2 X' \$ GText #9/ ]! S4 i1 J: P0 K& l( ~# [$ Q( X; O
ID : 13, U: U7 k' k! r: e
ID in the original source medium : 4775 (0x12A7)! `6 T: r7 q$ c# X
Format : PGS
3 `9 H/ J6 v, n0 ~& e4 j* ]Muxing mode : zlib
9 R3 G' o& v2 b* x; `" wCodec ID : S_HDMV/PGS1 ?1 _) L" i* i0 G  Z2 S0 D" f# x, |% ]
Codec ID/Info : Picture based subtitle format used on BDs/HD-DVDs
$ O% Y) e+ n( SDuration : 1 h 31 min- e) ^: g: m  q; w8 y
Bit rate : 7 958 b/s
. ^, I5 d. y: j$ AFrame rate : 0.141 FPS9 _0 T! k' \; W/ S3 |
Count of elements : 770' {0 }8 y/ ]& j6 U. V4 ^0 r# l
Stream size : 5.19 MiB (0%)
6 E8 W6 K3 _. G% A4 j' @) z! l5 N6 }Language : Spanish
" a: A6 i) f6 K+ rDefault : No' X0 t! w/ o9 O9 [, u* h/ h
Forced : No" _: D1 Z4 O+ Z
Original source medium : Blu-ray. M9 C( M. _% F5 C  ?' i
$ R. T2 o6 p7 w  f( P0 S$ u
Text #10
7 b8 V% m% }# n  a7 mID : 14
7 W+ o0 x9 S$ W4 m2 A5 v/ XID in the original source medium : 4775 (0x12A7)/ v' u/ ?- O. G5 y' `$ k$ u
Format : PGS
+ h$ g+ I6 x2 }Muxing mode : zlib/ R' {- S# L0 x# p
Codec ID : S_HDMV/PGS
* H$ c* w# ~5 N0 u9 v$ T+ |& |Codec ID/Info : Picture based subtitle format used on BDs/HD-DVDs
5 c6 z; c5 h( a: I" Q  kDuration : 1 h 31 min1 ^) N- o0 A& B
Bit rate : 253 b/s
. u+ _) @2 @7 J  \. n2 PFrame rate : 0.003 FPS; o9 U5 O. _# L  R
Count of elements : 16) {9 f7 E0 O; i8 J+ M4 ?
Stream size : 169 KiB (0%)* q2 Q, L* m& P; F' u7 c& D, ^& t
Language : Spanish
( H# U" L' E- `3 V, ^; i' yDefault : No
8 n$ U0 O7 ]' @$ v  wForced : No
/ G) {  h8 N* p( i& D: [Original source medium : Blu-ray
# m8 d  v- Y2 m
& i& v6 e7 Q4 r5 h8 n8 D( i' |Text #11
3 H" g7 p+ s* B0 b, a# y8 ^: pID : 15, V& \& X" m1 w
ID in the original source medium : 4776 (0x12A8)
2 @5 j. H0 }8 sFormat : PGS4 q2 R. t, z  `+ \; ~: t* @
Muxing mode : zlib
4 x# E* |, G2 T9 R  B# `  Z# n7 ECodec ID : S_HDMV/PGS
) O) u0 M. z. n: a$ hCodec ID/Info : Picture based subtitle format used on BDs/HD-DVDs
, U. M8 Y. z7 y* H$ g& y. ADuration : 1 h 31 min
- `9 I0 w0 K& H" K: g. lBit rate : 7 696 b/s/ P2 Y5 z& j" Q7 F1 L, T! w
Frame rate : 0.140 FPS; v( A8 ^# c4 e
Count of elements : 766
. j% W8 g, j1 A6 b5 {Stream size : 5.02 MiB (0%)
( p" x( s, U; O  Y: `- j; i5 WLanguage : Thai
( W( X; J3 ~$ ~; G. `) R. J# hDefault : No- Y; l+ ?, U" n2 ]# w
Forced : No, ^$ Z) o3 S1 V  I' ]3 O, u/ w' Y9 y
Original source medium : Blu-ray6 X4 m5 v- u9 J" I. F

0 J+ z0 n& r1 P0 d4 ^. HText #12
+ S# X+ a0 }( I! \( C( [' Y! M! aID : 16
: A- J4 T9 p1 XID in the original source medium : 4781 (0x12AD)
6 u) B4 @) j+ IFormat : PGS$ q4 b" |: v8 w
Muxing mode : zlib4 w* q' D( I$ V# W0 ^$ u& z
Codec ID : S_HDMV/PGS
3 ~+ _7 F: m- fCodec ID/Info : Picture based subtitle format used on BDs/HD-DVDs, W1 G9 Q" w- ^7 e. C1 K( k* u5 u1 l
Duration : 15 min 44 s
& t: I* E& t! }, [) D# }; CBit rate : 1 301 b/s  v7 H& e$ ?) l& p* ^& C- i
Frame rate : 0.017 FPS
: s5 r; r8 I' p) Q5 d7 b0 p7 vCount of elements : 164 O; q0 _# E1 j% @8 ~
Stream size : 150 KiB (0%)
1 F+ ~- f0 A& ~% RLanguage : French: V7 H- n- E. x3 U
Default : No) w  a) g3 L2 s; S( x' }8 J& \
Forced : No, @0 t7 k2 d- `4 h
Original source medium : Blu-ray* C7 l+ R% [- s* I6 T) ~

5 s# G. |! u+ h* d# C& m0 UText #13
- ~; G( J( u/ ]1 X; Z! C( O- tID : 17
! Q9 s2 j! r5 o2 Y, ]$ O- HID in the original source medium : 4781 (0x12AD)/ }* |/ J' i3 t* z' Y
Format : PGS
9 v8 u8 O( X1 T5 B5 _& rMuxing mode : zlib" y5 {* N6 O- G- D. m+ s
Codec ID : S_HDMV/PGS1 `0 ?5 n: C6 f! |7 N. m, c1 O/ k
Codec ID/Info : Picture based subtitle format used on BDs/HD-DVDs: o, X! k# J- d% w3 Q+ E
Duration : 15 min 44 s7 k4 B- `' q9 R% F3 e% a1 i
Bit rate : 1 301 b/s
* l/ L. y; c; T( ~Frame rate : 0.017 FPS
6 V  }# ]( G* y* H3 y# z% sCount of elements : 16# v1 v8 W& ]- C; d3 V- |( h0 w4 x
Stream size : 150 KiB (0%)5 ^0 ^7 _7 z; k; Y
Language : French
+ h: J3 ~. R' n& l' yDefault : No8 \& g/ G8 C1 m" [
Forced : No4 Y) O( l- m9 j
Original source medium : Blu-ray; ]% @/ I( r; `6 z) y

- L0 W( i$ K( v" B2 Q. mMenu
, j4 N$ i' `1 i: F- G. B. o00:00:00.000 : en:Chapter 01$ E* |& O5 C) T8 [6 x
00:04:55.586 : en:Chapter 02
- r9 }, P* L( n" l4 R; m1 v00:11:46.247 : en:Chapter 03
0 j' D! O- Z7 q  ?7 a" Y00:16:42.334 : en:Chapter 044 V6 y/ m& L- }' K' O2 a+ [* C
00:20:27.184 : en:Chapter 05
0 J" `0 Z6 e: `! w8 i- r00:26:56.573 : en:Chapter 06
& K5 I# Z1 b, H( z2 r" o00:31:01.943 : en:Chapter 07" U1 V  n, ]1 V8 G, f& P& v
00:36:01.534 : en:Chapter 08
7 P3 d* @4 g/ i2 P* Q00:41:30.988 : en:Chapter 09
; `( X9 w" j) l00:46:17.524 : en:Chapter 10
  ^5 I* r0 @+ v! K) K( `  T00:50:11.174 : en:Chapter 11
. F/ s6 `3 D3 j- A2 ?" b00:55:04.467 : en:Chapter 12
! k: }- {9 r0 A/ f01:02:08.683 : en:Chapter 13# h3 U3 H  R9 z( g/ W
01:07:20.286 : en:Chapter 14. ?( n& F, ?( Z7 y! P
01:14:33.010 : en:Chapter 15
1 z, A- o% s3 h3 X4 f- j01:23:18.994 : en:Chapter 16
SWEATY BALLZ presents
& T0 |+ \& _! h; @& v* {9 n
7 M* n$ T4 ]0 m' N# P5 i65.2023.2160p.BluRaycd.x264.8bit.SDR.DTS-HD.MA.TrueHD.7.1.Atmos-SWTYBLZ 22.22 GB1 [7 }& E  `4 ^& s: L7 V
Converted from 10 bit HDR to 8 bit SDR using tripple mixed Hable-Reinhard-JJ per scene+frame analysis algorithm  O9 O: J; s. f4 \
( f4 m  @9 m! ]5 J) \0 g
Video! n( t# n/ J4 }2 J' s. T
ID : 1) l2 n& Z' t: u8 q
Format : AVC. e. G8 O3 H, X4 U" D4 e" D
Format/Info : Advanced Video Codec
! m3 X$ K2 t, o" y0 PFormat profile : High@L5.15 o, S* L# n1 {6 k7 @
Format settings : CABAC / 5 Ref Frames
. j* ~' Q& B8 pFormat settings, CABAC : Yes4 Y5 O6 f$ y& |( ?" m* V
Format settings, Reference frames : 5 frames
6 Y) z' _7 S# ?7 m. vCodec ID : V_MPEG4/ISO/AVC
; f9 |% G- \. l1 O3 ~4 m; RDuration : 1 h 32 min
9 b- z) D' V$ BBit rate : 25.1 Mb/s
7 }  G4 U. T" a3 u/ XWidth : 3 840 pixels
, G, Q+ r8 \& v* F5 O' KHeight : 1 608 pixels4 {/ L0 q; _2 ?/ P2 j
Display aspect ratio : 2.40:1: N' F5 W! T: S
Frame rate mode : Constant' Y* Y, Y$ s8 w9 v6 j6 ?) K
Frame rate : 23.976 (24000/1001) FPS. P( P( g8 k! t9 a- P4 @
Color space : YUV* b. C) u+ M1 @
Chroma subsampling : 4:2:02 D6 K' N- D% e; k3 j# L5 \  w+ A
Bit depth : 8 bits
. r) H" W# u" RScan type : Progressive
! S: t/ Z8 S" G* k6 mBits/(Pixel*Frame) : 0.170
3 {+ f- g0 U) X7 O* s7 L0 BStream size : 16.3 GiB (74%)
- f/ n0 _) O1 [* N0 k0 ]8 Z' EWriting library : x264 core 157 r2935 545de2f, h( O0 p5 N7 A
Encoding settings : cabac=1 / ref=5 / deblock=1:-1:-1 / analyse=0x3:0x113 / me=umh / subme=10 / psy=1 / psy_rd=1.00:0.15 / mixed_ref=1 / me_range=48 / chroma_me=1 / trellis=2 / 8x8dct=1 / cqm=0 / deadzone=21,11 / fast_pskip=1 / chroma_qp_offset=-3 / threads=50 / lookahead_threads=4 / sliced_threads=0 / nr=0 / decimate=0 / interlaced=0 / bluray_compat=0 / constrained_intra=0 / bframes=3 / b_pyramid=2 / b_adapt=2 / b_bias=0 / direct=3 / weightb=1 / open_gop=0 / weightp=2 / keyint=250 / keyint_min=23 / scenecut=40 / intra_refresh=0 / rc_lookahead=50 / rc=crf / mbtree=1 / crf=18.0 / qcomp=0.60 / qpmin=0 / qpmax=69 / qpstep=4 / ip_ratio=1.40 / aq=1:1.00% G  z. u1 ~5 M, m/ ]' e& O
Default : Yes4 D% @7 [& ~4 P' Z
Forced : No
. L% n0 N/ E6 @5 p
. v( ~$ _1 b) C  Z0 _  ?Audio #1/ s7 t7 v' Z( u# \1 Z- n
ID : 2) o& N0 h7 d: ~# N: U1 t, O
ID in the original source medium : 4352 (0x1100); o6 K$ V, f  S; [! d
Format : MLP FBA 16-ch% z5 X3 [( h8 z/ V2 t: d2 o( U; Z
Format/Info : Meridian Lossless Packing FBA with 16-channel presentation" y: X+ h% Y: ~( K6 L: N
Commercial name : Dolby TrueHD with Dolby Atmos
/ r+ v$ r8 ^" J5 ]7 p" {$ q& |; ICodec ID : A_TRUEHD
3 T# j4 L3 W5 Y* S( IDuration : 1 h 32 min# z  U- u( O2 z& n
Bit rate mode : Variable% R' F# u2 ~$ Q! G2 }
Bit rate : 4 304 kb/s
0 ~3 {$ }, u/ g5 p  Q/ P( d; j' YMaximum bit rate : 7 248 kb/s7 p8 {, ^0 Y  a* `
Channel(s) : 8 channels5 F* n1 U0 R" ^* C* G
Channel layout : L R C LFE Ls Rs Lb Rb
! z3 l) m% ~' C9 C) DSampling rate : 48.0 kHz
7 ~6 K+ j" ~' C6 t& JFrame rate : 1 200.000 FPS (40 SPF)
7 v7 ]* z7 j; _8 d# ], hBit depth : 24 bits5 l# m2 g% O" X1 @, V1 G% F
Compression mode : Lossless( ~0 t. ~% J0 ?* E( I
Stream size : 2.79 GiB (13%)
+ u) h7 W) {# UTitle : TrueHD 7.1 Atmos
& ~: ?1 B! [0 ~Language : English
$ G# d) i  ^9 H6 G$ oDefault : Yes
! A- n6 e2 k( L6 [% \' k1 GForced : No& l0 B- [4 p/ G% R- ?8 ^2 n3 L, `2 m
Original source medium : Blu-ray: M2 v/ o7 D' g3 H8 v8 r* M
Number of dynamic objects : 11
! n, X% B) F. j( r0 M, g9 G9 RBed channel count : 1 channel
3 K/ h$ {# s- w8 wBed channel configuration : LFE/ Y; c9 x" h$ H" T

. O+ D, S' c$ G) ~+ N/ ?Audio #28 O6 z- M6 v0 e' Q( Q& ]0 `0 }
ID : 3
3 j% e, ]9 P& R5 ]9 tFormat : DTS XLL: ^6 V1 R4 `+ ^$ O; I
Format/Info : Digital Theater Systems. u& O/ o3 r: t* J5 ?7 J/ h6 a. U
Commercial name : DTS-HD Master Audio
9 v  u% H' @8 \8 n; tCodec ID : A_DTS
/ k6 c3 C. Q; _$ d4 s# h  u" \1 N3 ]Duration : 1 h 32 min
3 E% |" X; F! M* SBit rate mode : Variable: |# Y: a5 U, }1 V7 J
Bit rate : 3 957 kb/s
  t3 q& T; h) O- S8 p3 f- @2 mChannel(s) : 8 channels
8 {8 `; e$ A  b. T( J" L" }: QChannel layout : C L R LFE Lb Rb Lss Rss7 [; j! ]1 \  T& O: f" d7 d# Y3 s/ A/ H( L
Sampling rate : 48.0 kHz
$ D$ v/ a2 o* s' K4 aFrame rate : 93.750 FPS (512 SPF)4 s& L3 u: f, H# C& x! w0 Y: I. `9 r
Bit depth : 24 bits
: d& Q. d$ {' R1 ?' _Compression mode : Lossless
5 a2 \) |0 z6 SStream size : 2.56 GiB (12%): M. S# y. P  h+ R% W
Title : DTS-HD MA 7.1
+ T& l6 A0 s& S1 S, |Language : English
2 H6 f3 r7 G3 M* BDefault : No
. W( R* k9 A6 i* h6 oForced : No5 X  C. W( s% Y9 T3 Q$ Q% D3 y

2 j2 e8 R% A* PAudio #3
4 [0 K9 C* R( e0 j1 n  [ID : 4" N4 x- B" |( U. \+ J
ID in the original source medium : 4352 (0x1100)  [3 @  B7 J. _2 ]3 Y- S: G
Format : AC-3
& R; A" ]7 D( u2 X+ }6 {Format/Info : Audio Coding 3
* Q4 X6 P, M2 ~: c) qCommercial name : Dolby Digital
* H: v: v) P" S4 u" F; rCodec ID : A_AC3
) M/ d5 w% _/ iDuration : 1 h 32 min. S& Z: q5 i4 ^6 ?3 G( z
Bit rate mode : Constant% ?6 u! ^5 s1 K: U; W
Bit rate : 640 kb/s
, |+ P) Z  Y" D/ qChannel(s) : 6 channels1 U2 i3 l6 ?; k) Z% X% f
Channel layout : L R C LFE Ls Rs/ V& b& l% A/ n) q# V5 u
Sampling rate : 48.0 kHz
+ W0 I4 r1 z6 A1 e" i( nFrame rate : 31.250 FPS (1536 SPF)
% P( k1 o$ U8 X' QCompression mode : Lossy
5 U# T9 W% N4 z$ R# [) S- m0 CStream size : 424 MiB (2%)
* g8 j9 \* ]* p8 e& O: lTitle : DD 5.1
7 D$ f2 u; H7 v+ p' E$ c: GLanguage : English7 ^1 @2 f0 n$ D2 g* q
Service kind : Complete Main
: k* |+ X5 U3 ]9 ?9 `4 I5 RDefault : No" t+ b9 F# N9 C' K. o6 y2 ^
Forced : No
6 z, H6 v6 E$ U. {' MOriginal source medium : Blu-ray
& M, O6 u5 o. ]5 W- @9 k" ^, u8 p& O$ o" F5 N  ^. W) r6 a
Text #19 }! g. t' t& R9 x7 e0 x* M
ID : 5
( F9 N9 Z: J% f1 jFormat : UTF-8
- c8 R2 A- g! l5 f2 O* }Codec ID : S_TEXT/UTF8" Z( R6 c5 ], u, H* r) P; A( J
Codec ID/Info : UTF-8 Plain Text
, [2 _3 g, J+ m) uDuration : 1 h 22 min' Z  O4 S) ]- y
Bit rate : 13 b/s
/ z5 ]+ @* B8 q1 w# p* XFrame rate : 0.068 FPS+ Y$ D* I) S2 _8 J% c7 Z" y! S
Count of elements : 334  P& x. ?! _: e* d/ X
Stream size : 8.16 KiB (0%)
6 R7 U* K& N2 M/ FLanguage : English  H4 n) b$ ^9 l* j
Default : Yes
' _+ U# w- u1 `- Y8 i, LForced : No
& h7 H# z" f' P( v5 X5 c
  k5 `# x; Y) L; \# g: @Text #22 \/ {. g/ j. q+ C0 g1 o; u0 ]/ T
ID : 6
2 r2 n  |( ^6 r+ |9 G* b& l/ |- PFormat : UTF-8
7 q! K) D4 J5 e8 h- X2 p- ECodec ID : S_TEXT/UTF8
  W) R9 z' N. ~/ F1 g! xCodec ID/Info : UTF-8 Plain Text1 J# L6 [2 o1 i6 [- p
Duration : 1 h 28 min
9 J1 i% Y; w2 x5 zBit rate : 26 b/s
) o; _4 l- W9 J, v, j6 c% gFrame rate : 0.150 FPS
) Z6 O6 D8 ?# r, l( eCount of elements : 796
  R4 E! T7 F  e0 m  XStream size : 17.5 KiB (0%): X# x, o; ]* s3 ~6 t; i; t
Title : SDH$ v" N" q  p% B4 }  j0 T
Language : English
- [1 O* `" I" f: x# }Default : No
& {% t9 a' ^8 a9 i# Y& [5 u6 sForced : No
' i) c9 M; @/ K
7 s' q! m% k+ x2 D  zText #33 h* z4 }5 m' L: P$ X
ID : 7
$ i3 x" y5 \  ^ID in the original source medium : 4768 (0x12A0)
* R9 s9 A  R& M1 W' \Format : PGS
7 j: Q: |' I% r: A# k" q2 nMuxing mode : zlib% O0 Q6 o' n: P1 u2 d
Codec ID : S_HDMV/PGS. Z- J3 H  b7 M) n$ R, M2 V
Codec ID/Info : Picture based subtitle format used on BDs/HD-DVDs
# C, E# \3 {  E# z( N3 u5 z; y7 S: F7 V! rDuration : 1 h 28 min
$ c8 i" l+ u3 T: `: j. KBit rate : 18.4 kb/s
4 g$ ?) p( F6 _+ [: \4 F; zFrame rate : 0.311 FPS6 i! J: g4 |6 I7 g0 P: [% Z3 _9 U, `
Count of elements : 1654. U5 u" _5 O+ D3 F" M1 j7 M- I
Stream size : 11.6 MiB (0%)
5 F6 s' ?- }+ N  b2 iLanguage : English
/ l% s! ]3 W$ f4 w! y: d: Z# mDefault : No
( O! \) H& Z& Q3 v2 @Forced : No
0 m$ q- j: D3 w$ W* A4 s% iOriginal source medium : Blu-ray
. G7 @/ }4 z- Z+ ^0 k2 I+ F% F% y6 D# Z8 H: L+ Y$ s
Text #4
* o: k" W) J" c$ Q. {% oID : 8
: e& u! ~& p  ~+ m2 a. _; MID in the original source medium : 4769 (0x12A1)& U6 |; }' T$ [" O5 j$ v9 j' x
Format : PGS
+ O7 b  ~0 f* G/ x$ iMuxing mode : zlib
" w) j. R% ]( ]- X! i7 XCodec ID : S_HDMV/PGS
4 C" b: A+ T' hCodec ID/Info : Picture based subtitle format used on BDs/HD-DVDs3 C' G+ ^  k9 V4 H$ c: w
Duration : 1 h 22 min
/ h. B5 {4 r" u6 c( t" b+ \Bit rate : 8 775 b/s) t8 L8 ~# K8 O9 V' N1 [: V$ A
Frame rate : 0.146 FPS7 }" N+ @4 J! K9 Z4 {( {# h6 h
Count of elements : 722  }( F, C/ x' _  f$ x% h% m
Stream size : 5.17 MiB (0%)" k# r) Y9 }9 B; u' `$ Z
Language : English
6 O& a& e; E/ n' mDefault : No) Y" I8 e; E6 j5 [
Forced : No
- g9 M, S% v- F4 r9 R3 `Original source medium : Blu-ray, {" n! I' D" z/ m/ n+ s2 v7 }
: A1 O) n* T7 ~2 l
Text #5' }( i/ c3 d5 i# D: `# y
ID : 9
1 P/ e. o9 [6 ^+ }) H, IID in the original source medium : 4772 (0x12A4)
" c' l2 c+ G9 hFormat : PGS
( l* M! ]. t$ M/ f# l% q  ~6 C+ UMuxing mode : zlib
% u8 a, e$ `1 Z! d4 p1 GCodec ID : S_HDMV/PGS
5 t4 P; k% ?$ q$ x2 Q; w: g2 ^# Q2 g1 }Codec ID/Info : Picture based subtitle format used on BDs/HD-DVDs+ m" Q$ P/ A/ J+ v7 ]# e5 N
Duration : 1 h 31 min; ]% c( \0 x  d6 {6 `2 V
Bit rate : 7 655 b/s  v$ @7 D+ W' d8 Y4 g
Frame rate : 0.124 FPS
% n3 t3 }) O. {  c! p  eCount of elements : 678  w+ Q6 {4 t! ?7 }2 w0 k; s
Stream size : 4.99 MiB (0%)
8 ?/ }. z+ {& S! @4 D2 Q( jLanguage : French) R+ O# x9 g, }) w; w
Default : No8 D# q: {" D8 [" q% s0 G; g
Forced : No* Z0 w6 O" o6 S. x! l
Original source medium : Blu-ray8 Q; \. [# y! c! S% r* z
9 ^; ?% `  r# I* \# m# j! \% d
Text #6
4 F. f, s: o3 E/ g; ^8 B- H) SID : 10
3 k& l9 x  h7 {/ M# \, X0 ^ID in the original source medium : 4773 (0x12A5)
4 \2 q# H5 o3 _- MFormat : PGS7 @4 S/ g0 n' M3 v
Muxing mode : zlib& n! g0 j8 i/ V+ u' G0 i2 h! g
Codec ID : S_HDMV/PGS
+ W# T+ ^9 e1 E, ]' v+ DCodec ID/Info : Picture based subtitle format used on BDs/HD-DVDs/ T- K" d' @: T$ o- r2 v
Duration : 1 h 31 min) [# ^" r9 _4 E* K
Bit rate : 5 686 b/s! |& @# y% T* J; T; t. U
Frame rate : 0.142 FPS
) t6 U4 v) |4 F+ d1 ]' J# RCount of elements : 776- f/ d" y+ w4 {( ]
Stream size : 3.70 MiB (0%)) I. c: H. `: y, U0 c
Language : Korean7 }4 i+ z. ?  F; b( w, A
Default : No7 y7 m9 Y! i! j7 i
Forced : No: B# Y7 q) i# x
Original source medium : Blu-ray
* P' u2 j2 j* X: f1 j" O% G& G* R- p1 b0 E* @4 X
Text #75 ~3 D; c# S& L& p
ID : 11" n, i5 w/ R' j! _' \
ID in the original source medium : 4774 (0x12A6)
4 ^9 m+ T- ^4 P. _Format : PGS% \$ C: g, s" L
Muxing mode : zlib6 n1 d4 t4 K1 a  Z  @; l- c
Codec ID : S_HDMV/PGS6 s+ P$ e+ _) N! W
Codec ID/Info : Picture based subtitle format used on BDs/HD-DVDs. D5 k& _4 @3 x( N8 s+ \: {! K
Duration : 1 h 31 min6 E$ d& @4 D5 |
Bit rate : 8 334 b/s
3 ~8 Q+ g: B& e1 W" _Frame rate : 0.139 FPS
4 Z  V, A( _* J; R( XCount of elements : 758
1 y* [- q9 ?- G$ DStream size : 5.43 MiB (0%)
9 h6 s) t0 ]- l0 _0 f' w& ZLanguage : Portuguese
3 o! r5 g, l$ ADefault : No$ e3 v+ T6 v# x7 ?0 u
Forced : No
; S  ^6 q" |$ Q* G7 FOriginal source medium : Blu-ray8 Y5 w2 l# h" ^3 D7 F" o

. F0 N( C/ l1 D4 Y2 B3 |3 [' BText #86 N2 v" V8 b( ]8 e# M" n
ID : 12) J0 M  w1 m. E# z0 b
ID in the original source medium : 4774 (0x12A6)
8 X4 k1 G' g; f! g, lFormat : PGS
/ ], d0 j/ n# s- qMuxing mode : zlib7 l* n4 Y3 m% J  ~/ p
Codec ID : S_HDMV/PGS& h, ^& W4 w, b6 V6 O
Codec ID/Info : Picture based subtitle format used on BDs/HD-DVDs
! ~$ k  D1 W( S4 U6 z4 E1 N$ ~Duration : 1 h 31 min
4 E/ r, G+ z8 a" A: OBit rate : 245 b/s, T& W) Y1 k) Y
Frame rate : 0.003 FPS
" g. X, n' ^) F$ mCount of elements : 16
8 d  M0 \' x/ c  lStream size : 164 KiB (0%)# B, g9 v' V) m; L
Language : Portuguese1 D$ t, G2 @! p/ W
Default : No1 C9 A" O. P, O
Forced : No
$ m' P/ A; n0 M" E/ b2 }# ?Original source medium : Blu-ray2 y5 q+ M2 i6 g1 F; l. y8 C) t' R  |( i

. V( x3 V) _7 A2 J& J- x! {3 @Text #9; {; |  {' o8 S3 I+ J5 ^) j: S
ID : 13
- t- N) K& y( c" rID in the original source medium : 4775 (0x12A7)
% ~* Q3 A2 N* D- Y- rFormat : PGS
) Q% h6 X) X2 u+ N9 iMuxing mode : zlib
- a% Y3 f% ~7 R- C/ J4 M' G: B0 r6 i. GCodec ID : S_HDMV/PGS6 Z6 T# L# U% `% Z! ]* }% N! d
Codec ID/Info : Picture based subtitle format used on BDs/HD-DVDs
8 U8 V2 b, ~$ z; E9 NDuration : 1 h 31 min# b/ r3 I9 K9 w# ~- E7 f) R7 E
Bit rate : 7 958 b/s1 E  H0 B" G8 F  V
Frame rate : 0.141 FPS7 O% s  D4 `: p' \
Count of elements : 770
8 Z+ H5 p' v" t6 I2 Q2 QStream size : 5.19 MiB (0%)+ Q$ |- z. q) v8 _
Language : Spanish
: @9 ?3 W+ S/ V/ tDefault : No
0 a1 S3 K, b' u. F3 ?& WForced : No7 g% K8 Q% M1 Z2 T
Original source medium : Blu-ray
+ H, f8 w5 ~% x, w
: j+ p6 X- X6 T# _' m  UText #103 ?4 L& v1 @( ^  G  h
ID : 14
4 j$ f' M: b- j! Z9 OID in the original source medium : 4775 (0x12A7)
0 R- L1 V7 z: x% i9 yFormat : PGS) f) {* \0 I% m* ?
Muxing mode : zlib8 F4 Y+ ~& z5 @# V3 ~
Codec ID : S_HDMV/PGS5 l" F! I" F" [* _; a
Codec ID/Info : Picture based subtitle format used on BDs/HD-DVDs) g' p* [# {% n
Duration : 1 h 31 min
: g. y0 h1 k! Q  t" Q$ h) R7 XBit rate : 253 b/s  ^, x3 J0 S5 s7 j
Frame rate : 0.003 FPS8 s4 L; w, [6 K
Count of elements : 163 l1 P9 {! e3 w( c) d" f
Stream size : 169 KiB (0%)
2 ?+ B, \2 _, p! E# }, Y% \& vLanguage : Spanish, v6 b: f9 k: m2 g9 ?
Default : No
& L- b$ U* }9 tForced : No- v  V: I* S, S5 _8 M3 e
Original source medium : Blu-ray
: b) g$ Y$ V; `/ B6 i( R1 \' ~1 j! N; Z% l; E: T
Text #11
3 C0 [( k1 D1 b! fID : 15
$ Z8 h1 O% O6 t- L( `8 xID in the original source medium : 4776 (0x12A8)8 K5 O9 v- e. f! |  d2 f
Format : PGS
6 C. q/ y( |2 I$ T- PMuxing mode : zlib+ l4 Z! D  j2 [) u; R
Codec ID : S_HDMV/PGS
1 ]% u% I: r' N; N, RCodec ID/Info : Picture based subtitle format used on BDs/HD-DVDs# z. Y" L* D0 Z* C% h+ ]" K
Duration : 1 h 31 min
5 Q6 I9 ^) ^% NBit rate : 7 696 b/s" K) A: J& |( S2 T& `! K
Frame rate : 0.140 FPS
. l  B7 _0 n: lCount of elements : 766/ k; L5 {/ u& Q7 t/ w5 c; W) z
Stream size : 5.02 MiB (0%)/ O! v4 A5 B/ [7 {
Language : Thai
2 r  `5 ~* m8 }6 g. kDefault : No6 _3 a& S. _& y, ^- f
Forced : No
+ O* Z( E0 s( R* s2 m. F! a1 M6 COriginal source medium : Blu-ray
& P+ @2 f8 x: b% g8 W  e5 a3 U  o2 i5 y' B
Text #12
/ |) G4 b) C# x9 F" gID : 16
2 g& X* S: C3 A# Q0 s! AID in the original source medium : 4781 (0x12AD)
6 v& {/ _. ^# |( HFormat : PGS
# R5 F1 M( R+ b2 P* }Muxing mode : zlib
7 {1 @' G2 y" s$ |Codec ID : S_HDMV/PGS
7 K' ?4 h1 J. C* n" wCodec ID/Info : Picture based subtitle format used on BDs/HD-DVDs
! c0 {6 u, d1 [, fDuration : 15 min 44 s8 h1 V2 f3 e4 ~
Bit rate : 1 301 b/s
( @% f' A1 x. W9 a* D2 sFrame rate : 0.017 FPS
) m! S# c- @: P3 h2 _Count of elements : 165 `) E% T2 ^5 K$ G5 ]
Stream size : 150 KiB (0%)4 w( |5 B& a) k
Language : French
" l6 w3 [& I( s0 z2 @Default : No3 B* s( c' x" L
Forced : No, L/ F3 Y/ Y4 k- T) I
Original source medium : Blu-ray
" h: \4 @/ X' V1 H. b1 }
' \5 R, g8 M2 N: w5 Y9 M$ F) q1 HText #13
: R8 e5 h  [1 J9 ?: Z3 P& p; s4 K7 {/ OID : 17
) W  b9 J' S7 n) C6 aID in the original source medium : 4781 (0x12AD); |1 V( f9 J6 F& y
Format : PGS  k6 H% j& c6 w; P$ G- I. ?0 }' b7 u! H
Muxing mode : zlib6 k3 u( I9 o: J7 }, z
Codec ID : S_HDMV/PGS- N5 z) M3 x+ f: d: s! I
Codec ID/Info : Picture based subtitle format used on BDs/HD-DVDs5 X2 Q4 C$ ?4 x. D1 R9 ]
Duration : 15 min 44 s9 v  E! x( s! I. c/ T
Bit rate : 1 301 b/s& {7 V* j2 D& f& E$ N. G, v
Frame rate : 0.017 FPS* F4 i# H  ?# i9 ]) I
Count of elements : 16
) F5 \$ \( g7 ~6 U! ?" I, N4 lStream size : 150 KiB (0%)
! {; R* T  M% t6 m8 D$ w5 ELanguage : French% G6 r  m, _- ^
Default : No, J: l' m( {" ?' y
Forced : No- F6 z2 d7 W& w7 y
Original source medium : Blu-ray
+ U" A, t5 [) Q, B- R: F! J  t9 V6 h# G' ~6 w8 i
Menu, `; f% A  m: i4 b
00:00:00.000 : en:Chapter 013 X8 K+ v: }8 ~0 y
00:04:55.586 : en:Chapter 02
3 A( r7 _' U. D: M00:11:46.247 : en:Chapter 03/ R/ p1 K1 S! Q2 u; O% u; E
00:16:42.334 : en:Chapter 04
5 \0 w) C% e% q( g00:20:27.184 : en:Chapter 05
! N) ^  {$ q; y, [3 L* J00:26:56.573 : en:Chapter 06: S# s) [7 e! E- z. I. q
00:31:01.943 : en:Chapter 07& x# V' G+ }' X5 k
00:36:01.534 : en:Chapter 080 u( h! J% c+ J) O
00:41:30.988 : en:Chapter 09
& f. w7 \' d1 K2 @6 j6 E+ O00:46:17.524 : en:Chapter 103 z2 o! J7 Z2 V0 X* ~2 N
00:50:11.174 : en:Chapter 11( F1 {# H4 T1 `1 u8 q7 V7 ?; c
00:55:04.467 : en:Chapter 123 D& ]/ a, S( b
01:02:08.683 : en:Chapter 13, y7 b5 x9 ^% [& G3 \
01:07:20.286 : en:Chapter 14
6 j8 y7 V# w5 y: {; l% l01:14:33.010 : en:Chapter 15+ U5 G2 h* q3 R7 ]3 j
01:23:18.994 : en:Chapter 16

4 Y4 r7 U7 M/ u
游客,查看本帖隐藏内容请回复 | 加入VIP可免积分免回复 了解详情 | 还不是会员:点击获取邀请码 Invitation Code

0

主题

128

回帖

706

积分

Sponsor

金币
149 枚
体力
281 点
QQ
zwq4005 发表于 2023-6-3 16:15:21 | 显示全部楼层
楼主发贴辛苦了,I*老*虎*U!
9 ]0 ~9 `" o( C+ h* Q至少是现在,我一天没有访问蓝光电影论坛就不爽!At least now, my day did not visit the Blu-ray Film Forum on unhappy!3 h2 b6 V  L/ _& h( K8 B% d

0

主题

261

回帖

1455

积分

Sponsor

金币
128 枚
体力
802 点
defend 发表于 2023-12-24 21:52:35 | 显示全部楼层
感谢楼主资源,感谢!

本版积分规则

小黑屋|手机版|Archiver|4K蓝光论坛

GMT+8, 2024-4-24 04:27

Copyright © 2001-2021, Gadaddy Cloud.

快速回复 返回顶部 返回列表