BluRayCD Forum

 找回密码
 立即注册【分享大片】
查看: 364|回复: 23
收起左侧

[4K极清电影] 变形金刚7:超能勇士崛起 [4K REMUX无损版 内封中字] Transformers: Rise of the Beasts 2023 2160p UHD BluRaycd REMUX HEVC TrueHD 7.1 Atmos-CiNEPHiLES 62.40GB

[复制链接]

9221

主题

194

回帖

6万

积分

Post Share

金币
516 枚
体力
13188 点

卓越贡献勋章

24小时 发表于 2023-10-7 02:01:24 | 显示全部楼层 |阅读模式
During the '90s, a new faction of Transformers - the Maximals - join the Autobots as allies in the battle for Earth.7 R$ U# W) o; ~
8 _: F  B3 M+ K1 X# s6 _
01.jpg
" S7 s% W3 k4 D$ M- s: l" ?
; m  r# Z3 D7 J" M◎译  名 变形金刚7:超能勇士崛起/变形金刚:狂兽崛起(港)/变形金刚:万兽崛起(台)/变形金刚7:群兽崛起/真人版超能勇士1 ~* g8 s% b3 \
◎片  名 Transformers: Rise of the Beasts
9 \& U! l* ^5 j, p& U8 b* L◎年  代 2023
& ~  G/ A1 y) e* r◎产  地 美国+ q0 }* a; W" p
◎类  别 动作/冒险/科幻, _! ^1 k# g3 l  n  M3 P. ?
◎语  言 英语
9 {- f& d3 z6 t2 T. ^& ?◎上映日期 2023-06-06(韩国)/2023-06-09(美国/中国大陆)
+ \: _+ ^9 ]  D◎IMDb评分  6.1/10 from 83,768 users
, y, U+ N- @" S( X3 c4 j/ j◎IMDb链接  https://www.imdb.com/title/tt5090568/
/ h8 {- E) K2 W5 @" C; ^◎豆瓣评分 5.8/10 from 152,983 users! S+ B( ~2 {7 f# e
◎豆瓣链接 https://movie.douban.com/subject/26634250/
: ?+ y; E; Y- V, k◎文件格式 x265 + TrueHD
0 u! t; H# Q: o" H◎视频尺寸 3840 x 2160
/ E% i5 f) }/ m7 {1 |$ x6 v! `4 K◎文件大小 1DVD 62.40 GiB3 p0 s" S. W/ ?6 n1 C8 ^/ b6 n
◎片  长 2 h 7 min
3 v$ G/ W( U2 N◎导  演 小斯蒂芬·卡普尔 Steven Caple Jr.1 G( c% M6 i4 `* N
◎编  剧 卓比·哈罗德 Joby Harold4 C1 Q7 D' m5 g
       达内尔·梅耶尔 Darnell Metayer7 d- }! v  W: C, L
       乔什·皮特斯 Josh Peters- _- U9 g: N. x1 T# j; x; R- X4 y8 I
       埃里希·霍贝尔 Erich Hoeber
7 D5 _! j, G' n       乔·霍贝尔 Jon Hoeber
7 o6 X5 a- U" n& ~* [4 u( @◎演  员 安东尼·拉莫斯 Anthony Ramos8 d+ ^2 Z( G# c) y6 }1 O5 h
       多米尼克·菲什巴克 Dominique Fishback
+ _; p$ S# I; G: [% i       彼特·库伦 Peter Cullen
6 X( n9 y9 d1 U) f       朗·普尔曼 Ron Perlman
' x  L8 [/ l0 e1 Y$ C4 N" X       彼特·丁拉基 Peter Dinklage3 ^0 m+ D  i+ g  h4 l* p1 {; I6 r7 [  C
       杨紫琼 Michelle Yeoh7 ]+ X8 K4 o* y8 z4 Y: B
       皮特·戴维森 Pete Davidson
! e4 Q+ {3 ~/ W* \7 U8 h% N- P+ P       科尔曼·多明戈 Colman Domingo
1 q, l  i, n$ L1 \4 h! B  Y- R       丽兹·考什 Liza Koshy
- M& s; j$ M& d+ d       克里斯托·费尔南德斯 Cristo Fernández
/ D4 B6 w' y7 i) w4 q. j       MJ·罗德里格斯 Mj Rodriguez) n/ ~4 Q; i( i- ~% u- L5 _
       大卫·索博洛夫 David Sobolov
2 O4 L! h2 `6 {# s  I. w' m       汤加伊·基里萨 Tongayi Chirisa
! R5 X& l. T! h/ R, U; m       约翰·迪·马吉欧 John Di Maggio) k5 _. S" q: }# g/ s
       迪恩·斯科特·瓦兹奎兹 Dean Scott Vazquez/ a2 c, G6 @  @! m- {: o' D
       托贝·纽维吉 Tobe Nwigwe# e4 L  s. a5 \& D% ?' r
       劳伦·维勒斯 Lauren Vélez
7 V$ b0 P$ Z8 i8 ]       莎拉·斯蒂尔斯 Sarah Stiles
9 ~. j! v& a5 o0 _0 `  _! |) N' [       多梅尼克·迪罗萨 Domenic Di Rosa
, c5 P, i9 f! k1 k
) y* j4 E' g1 y6 b, i◎简  介   
: }: c: T- l3 z  }+ @/ \. V
* C6 O. L/ q0 d- S. n2 O  故事重返上世纪90年代,终极反派宇宙大帝(科尔曼·多明戈 Colman Domingo 配音)从天而降,驱使以天灾(彼特·丁拉基 Peter Dinklage 配音)为首的恐惧兽掀起地球危机。绝境之中,蛰伏许久的巨无霸终觉醒,联合汽车人变形出发,一场前所未有的决战即将上演。- X! m6 d% Z7 e
+ O  ~9 i. m' y# a: e
  Set in the 1990s, Transformers: Rise of the Beasts will take audiences on an action-packed, globetrotting adventure as the Maximals, Predacons, and Terrorcons join the battle between the Autobots and Decepticons on Earth. Noah, a sharp young guy from Brooklyn, and Elena, an ambitious, talented artifact researcher, are swept up in the conflict as Optimus Prime and the Autobots face a terrifying new nemesis bent on their destruction named Scourge.
/ [8 `7 e) v5 e9 @& g4 b% J; f% p7 k! s- y' `
Transformers.Rise.of.the.Beasts.2023.2160p.UHD.BluRayCD.REMUX.HEVC.TrueHD.7.1.Atmos-CiNEPHiLES- E1 a& E5 Y+ D2 `
  _3 N$ q. w, ^. ?. o# \
Video
' a" g5 X+ N2 m5 U6 AID                                       : 1
+ l0 s! y$ g  |& a% j  OID in the original source medium         : 4113 (0x1011)
& J1 H7 R5 ^. R0 E6 H2 G- p) x3 qFormat                                   : HEVC+ \2 Z* z4 ~, W" c2 J+ {& J
Format/Info                              : High Efficiency Video Coding! J' S$ h+ H% ?; q9 M
Format profile                           : Main 10@L5.1@High! E# h" x+ k3 j
HDR format                               : Dolby Vision, Version 1.0, dvhe.07.06, BL+EL+RPU, Blu-ray compatible / SMPTE ST 2086, HDR10 compatible
' D; C* ?7 h0 E( c9 T, k5 u3 UCodec ID                                 : V_MPEGH/ISO/HEVC& l3 z( S' r0 |9 B0 P/ a
Duration                                 : 2 h 7 min3 g# N: `- n) W( H$ }7 z" U% }2 A
Bit rate                                 : 66.1 Mb/s
. A7 k" N/ g! ~6 ?: A- r: FWidth                                    : 3 840 pixels5 |4 V. E0 {, o) e/ ?. \
Height                                   : 2 160 pixels( Z: e! \6 x) Z9 n
Display aspect ratio                     : 16:9
/ {5 {* _% p  y+ GFrame rate mode                          : Constant* {4 D& c9 V; I2 W9 \) J  Q
Frame rate                               : 23.976 (24000/1001) FPS
) F, m; P4 b' Z, k4 m' g, n0 h8 kColor space                              : YUV
! ~/ ?0 N8 \( q* mChroma subsampling                       : 4:2:0 (Type 2)
# r; }1 ]7 L% {3 }7 NBit depth                                : 10 bits  e8 }: o; M3 S! Z6 J
Bits/(Pixel*Frame)                       : 0.332; M; l  M+ k) g4 v2 \4 ^
Stream size                              : 58.7 GiB (94%)1 X5 @! K. ]+ M: W" Q0 @
Language                                 : English9 O& B3 G- y/ \( _4 f
Default                                  : Yes
  i, R8 D1 d9 \6 P' B" `9 q. JForced                                   : No8 g7 o' P% y2 B  \9 w. [
Color range                              : Limited) Q# x1 Z4 z7 x  I
Color primaries                          : BT.2020, U# }2 Y  A, [7 T8 O) N( K
Transfer characteristics                 : PQ
/ u7 Y9 C% K' r' NMatrix coefficients                      : BT.2020 non-constant% Q' }5 [8 x- a" c; V8 M
Mastering display color primaries        : Display P3
& B, M6 `( {1 B5 n1 QMastering display luminance              : min: 0.0001 cd/m2, max: 1000 cd/m2' ^' y! s' o: I+ Z
Maximum Content Light Level              : 1359 cd/m2
( @$ S4 o. }) I4 \7 rMaximum Frame-Average Light Level        : 400 cd/m2
# z4 y" H3 e+ i' t& s! vOriginal source medium                   : Blu-ray5 [- U* n6 ?1 `  W4 R) Q
Source                                   : Paramount Pictures Blu-ray
2 R$ h6 a% d3 n- W  r( Q: j0 ^" A& S& q* x
Audio #1- j, E# g! O% Q% l- `; O3 P' J
ID                                       : 2
3 l# M0 I' u1 i; s' ?! j$ bFormat                                   : MLP FBA 16-ch0 G9 p( [# t* R% [0 n! d0 }
Format/Info                              : Meridian Lossless Packing FBA with 16-channel presentation6 F7 M- [% `5 K3 ]; l
Commercial name                          : Dolby TrueHD with Dolby Atmos' W9 G5 o+ i: t- E
Codec ID                                 : A_TRUEHD: s- P, ~4 e  T
Duration                                 : 2 h 7 min: j4 F9 `( K2 L# o& w* G9 {
Bit rate mode                            : Variable
2 d3 O" L! Y8 C: v: v& PBit rate                                 : 3 048 kb/s
1 x/ a6 m1 c& RMaximum bit rate                         : 4 752 kb/s
& M0 R2 V3 s2 {Channel(s)                               : 8 channels
" P# P/ e' f7 l: L8 M3 N, ]/ mChannel layout                           : L R C LFE Ls Rs Lb Rb
4 @% P* i, e+ h" T( HSampling rate                            : 48.0 kHz
# }3 K; ^9 f5 Y( k* G/ _2 r) Q" UFrame rate                               : 1 200.000 FPS (40 SPF)  V& d9 A+ z- o  [0 k9 Z
Compression mode                         : Lossless
- ?) u6 G! [* [Stream size                              : 2.71 GiB (4%)
+ n+ ^8 a9 b- [6 jTitle                                    : TrueHD Atmos 7.1
9 S9 x. I/ i8 V2 h6 \* ]* s9 G+ wLanguage                                 : English
+ f) b' K! q9 G) C' `& m9 xDefault                                  : Yes
7 ]( [( H7 k1 g& `1 b. i3 OForced                                   : No
/ k- t  L1 ^; B7 USource                                   : Paramount Pictures Blu-ray1 Z6 ~  `3 A! Y, E8 p: a
Number of dynamic objects                : 11! _! j, \: V/ ~" v
Bed channel count                        : 1 channel, x3 h- L/ f/ z0 ?! ^& \! b4 O  y$ T
Bed channel configuration                : LFE
% ?5 O/ g1 b8 p2 D/ ^* e( l8 c0 F
$ f- H/ |; L% u2 o* lAudio #20 A; I+ }  ]' l
ID                                       : 3" y( D# n/ T% D' _; q# o' h' c
Format                                   : AC-3# f7 K/ G! u( l! T, @6 P8 ]
Format/Info                              : Audio Coding 3
1 Z" B* d# O3 A/ W) Z% p# LCommercial name                          : Dolby Digital
6 g% Q1 U2 y  M) E. \Codec ID                                 : A_AC3
, Z, H# D5 D5 k1 f6 H0 w  d' |Duration                                 : 2 h 7 min3 x! `$ }* \- e: \* W8 G+ o
Bit rate mode                            : Constant! X- n5 h  V( \( G$ Y4 C
Bit rate                                 : 448 kb/s" _  ?: q; \  v5 U  x
Channel(s)                               : 6 channels
) ^( i9 S* ?, p1 ^; S( s2 q; R/ [Channel layout                           : L R C LFE Ls Rs$ f) P, c' L* K- V" \
Sampling rate                            : 48.0 kHz
! l" X/ V+ L" J$ F: UFrame rate                               : 31.250 FPS (1536 SPF)
' d8 e3 D. H6 b8 J! [5 R& ?Compression mode                         : Lossy* A2 @1 h  ?" U: L( T: s$ i1 |
Stream size                              : 407 MiB (1%)
! ^0 {# W6 v, N* Z; M. D7 QTitle                                    : Compatibility track 5.1% t: [. b' f" c5 k2 p7 x
Language                                 : English5 z5 S. I7 J8 c" Y7 _  x! I1 U. R
Service kind                             : Complete Main
" \3 P3 m; i: U% D8 L: LDefault                                  : No
8 \4 e! s' z$ \Forced                                   : No
0 c7 D8 b" v7 F; SSource                                   : Paramount Pictures Blu-ray9 y2 j. }- B# M4 d+ |, f4 j, d! w
! [% Z: b" G' E" u
Text #1& i! ~* d9 h& a  g! x
ID                                       : 4' k! }# ^2 r) v8 |3 p
Format                                   : PGS0 f; M. W5 ]2 \+ T) u' V' n
Codec ID                                 : S_HDMV/PGS
* l0 S( h- y5 [: E" W. h; CCodec ID/Info                            : Picture based subtitle format used on BDs/HD-DVDs; p4 n( p; P" c  B+ J- b% T
Duration                                 : 2 h 6 min* Q. c+ d9 y3 |3 L' b. T
Bit rate                                 : 30.1 kb/s
7 S1 k& l/ N. Y% _7 q% }9 J# hFrame rate                               : 0.359 FPS
4 y/ s: H& [* D8 `- @Count of elements                        : 2720
) ?) ?$ J/ z6 Z! i# {Stream size                              : 27.1 MiB (0%)5 Q" P+ {( R7 \% v" i8 E
Title                                    : English (US) Regular& F/ Q: q& A8 t: S5 \/ U2 K
Language                                 : English (US)3 X% S: m! ?% s0 N5 `( \  o
Default                                  : No
7 w$ M& e0 Q! b" T$ X- R% h: cForced                                   : No
9 i+ {( j& B/ X+ h5 _( {" ZSource                                   : Paramount Pictures Blu-ray/ r5 D3 u9 j6 Y+ `' ^' V0 t

& [/ S; I3 e% n3 k. N/ S  N2 ]Text #2
" [. A& i. w9 E6 u. i8 HID                                       : 53 ?4 X  V! e8 T1 f( B" @- g! b% K2 j
Format                                   : PGS3 o4 G' m' p# \( T( `' Q* h
Codec ID                                 : S_HDMV/PGS
* s$ D$ O/ Y+ B3 d) e+ @9 f1 QCodec ID/Info                            : Picture based subtitle format used on BDs/HD-DVDs
( U8 ]8 k& t4 m& H3 ]0 rDuration                                 : 2 h 6 min! c( y1 N2 h6 z+ G0 `3 w* p$ O' z$ g
Bit rate                                 : 43.7 kb/s
2 ]/ E7 e( y  l4 L; pFrame rate                               : 0.533 FPS
& `9 g) m' {3 l$ \& {3 iCount of elements                        : 4032
; q! Q7 U. `5 P+ K4 n* o, ?6 oStream size                              : 39.4 MiB (0%)2 c0 p- U/ e' b2 s( m9 K. Y/ g1 H
Title                                    : English (US) SDH
1 z6 D5 |8 f6 b5 i3 u0 LLanguage                                 : English (US)( n. J6 r$ _# o$ L7 T# b! x/ ~& x
Default                                  : No5 J1 r4 H' b' T% o8 [0 O- ~; Q
Forced                                   : No
7 c3 i5 t1 z( F0 BSource                                   : Paramount Pictures Blu-ray$ }; ]& T5 _! W0 V$ g
. ~) F/ n; `" i/ M+ s# N) Z1 y
Text #3
4 X. V, T- i* u0 K" E8 N! s5 w7 VID                                       : 6
7 S! i0 `5 e2 c! KFormat                                   : UTF-8
4 Z2 J. H+ D/ T8 JCodec ID                                 : S_TEXT/UTF8( q7 Y' F, ]' V& T4 T- P% C. o6 Z1 t' R
Codec ID/Info                            : UTF-8 Plain Text6 p7 D2 Q# ~2 |: c$ @: P
Duration                                 : 1 h 55 min
, M% l) ]! P  [; t3 L9 Z5 VBit rate                                 : 47 b/s
; N1 Q) Y! b! U7 c- XFrame rate                               : 0.196 FPS& x; L% _- j8 w1 z
Count of elements                        : 1355
  f5 r  M# y; T' R! LStream size                              : 40.5 KiB (0%)
1 U& G# Z7 D4 D+ J4 l& i: @Title                                    : English Regular
- r" L" y+ \6 A+ R8 S( f9 QLanguage                                 : English (US)
1 f# b6 S) f9 X& @Default                                  : No" ^- @$ `. e3 J4 M+ C. i
Forced                                   : No6 V+ s3 S. K) T6 ?
Source                                   : iTunes. o2 z9 c* Z4 Q9 D- D7 F0 R

& a% Q& Q1 s2 L9 AText #44 S- V# |9 _2 c7 j6 Q
ID                                       : 7
; V9 ~* c0 L$ q# g! NFormat                                   : UTF-8
( E$ T; o; D( R  V! q7 sCodec ID                                 : S_TEXT/UTF8
* t. Y7 c# r& O) ?" s- u5 B$ JCodec ID/Info                            : UTF-8 Plain Text
1 c+ S' s3 H5 W. u& S5 v9 ?2 lDuration                                 : 1 h 56 min. W# S) [8 i" j$ X
Bit rate                                 : 67 b/s
( n% w, K0 [! g& b1 I2 oFrame rate                               : 0.285 FPS$ _5 G! l, D3 D' r5 y
Count of elements                        : 1993
+ j' r( S& m& dStream size                              : 57.7 KiB (0%)
% Z, `9 Q: u0 ?. Z& nTitle                                    : English SDH: h3 S0 z% Z2 W6 c
Language                                 : English (US)7 z+ I- P7 L  v1 m4 m
Default                                  : No( Z" _7 ~$ n8 Q3 L+ \
Forced                                   : No4 A& k" \2 B# j: r1 R& m
Source                                   : iTunes
2 k& M. U  _/ ~( L% _) Z; @: c2 ]7 o/ T4 G1 T; X
Text #5
+ L  N; @  ?& T7 p+ N& q: nID                                       : 8
$ s7 P9 v" M2 r" U3 \' IFormat                                   : UTF-8
7 i) |0 m; o$ @4 t) y: gCodec ID                                 : S_TEXT/UTF8$ d. B4 |; G: x
Codec ID/Info                            : UTF-8 Plain Text
# @& }9 [# ^" t' u: `Duration                                 : 2 h 6 min
$ ~5 M- c+ x6 ?, vBit rate                                 : 67 b/s8 r6 Z/ \9 q$ x4 p4 V9 n
Frame rate                               : 0.179 FPS
" f6 O* R4 L0 v, V: L0 u9 D8 hCount of elements                        : 13561 H" Y+ \  X% X" A# S
Stream size                              : 62.2 KiB (0%)$ l* F3 A2 ?+ ?& {  e
Language                                 : Arabic
$ w1 W  z4 e/ @& a' J9 p0 ZDefault                                  : No, c7 ]. C) t) u
Forced                                   : No+ k5 K3 T+ ~) E6 N3 c5 X
Source                                   : iTunes
; M- l% E/ c/ }$ s7 `% r+ u6 ?8 a/ E3 `" c( x1 U4 _5 w' K. o
Text #64 k' }: S# M4 s% a8 u8 X* g8 _
ID                                       : 9- [% j+ N: K+ _' C
Format                                   : UTF-8$ A6 q( \+ j% r0 G1 K8 d& W# [2 Z
Codec ID                                 : S_TEXT/UTF8( t$ N3 D/ r8 D# C/ ^
Codec ID/Info                            : UTF-8 Plain Text
1 \! j6 r/ u) p9 n' iDuration                                 : 2 h 6 min
% o+ z% S0 G7 w! E+ @5 W. X  NBit rate                                 : 62 b/s
4 ?& X/ U% h9 n" d% Y2 v! b3 tFrame rate                               : 0.181 FPS
! g1 [0 W# i- I; @6 a( cCount of elements                        : 1365
$ f# o, \/ j3 Y0 }  _1 Y. fStream size                              : 57.8 KiB (0%)
) Q& W& t0 y9 g" g1 ?Language                                 : Bulgarian
8 e; Q3 @0 U" w3 U% ZDefault                                  : No1 `" x$ H: m- p- C/ c+ a9 k! ~
Forced                                   : No- e! l* J( e' G' D& w# m
Source                                   : iTunes3 v1 q" u0 _0 G7 a# T* A3 I! Y
3 [% R5 F$ O" a+ a" _' V
Text #7
! U$ Q0 [  `/ ^9 S# GID                                       : 10$ N1 F! s( l! ~1 t& s; I  e
Format                                   : PGS/ r; `: h0 l1 c( R7 f; P
Codec ID                                 : S_HDMV/PGS
* v- F  q# @6 E' n( i* u+ G( [& F, TCodec ID/Info                            : Picture based subtitle format used on BDs/HD-DVDs
9 l2 q( O, l' T1 QDuration                                 : 2 h 5 min
' U! \9 @8 O( ]! l8 P( VBit rate                                 : 24.7 kb/s
) y. H- A% |: z( j& O" f( oFrame rate                               : 0.346 FPS
! @0 ?- q" q  P, E5 ]5 |Count of elements                        : 2600
' E' S+ v0 q  OStream size                              : 22.2 MiB (0%)
7 V% U: i2 ^+ {- O( Y8 QLanguage                                 : Czech
& y: [- {$ l, Z( [+ {5 i+ Q6 ]Default                                  : No. [2 N8 i. Y0 k( I
Forced                                   : No9 {1 S7 ]" p' }/ o7 Y+ H: d
Source                                   : Paramount Pictures Blu-ray# O. g2 i8 \- D5 z' t/ d" I

7 e/ Y1 ~& P- b# L# eText #8
- [, \& t5 m" a+ [7 J( ZID                                       : 11
9 [/ |8 i6 n0 b# J, qFormat                                   : PGS3 U1 _0 o+ ~- _' m3 E$ P1 z+ ~1 X1 s
Codec ID                                 : S_HDMV/PGS1 ?( R! V0 ~7 G7 t' K" A
Codec ID/Info                            : Picture based subtitle format used on BDs/HD-DVDs$ \# o/ C* j$ a8 \
Duration                                 : 2 h 6 min' b2 _  b1 `( I' F0 }/ A
Bit rate                                 : 25.7 kb/s
  O6 c' s( X- W. Q; |, e2 }, _Frame rate                               : 0.354 FPS' e3 z( I8 f# ~4 @8 Z  I" S
Count of elements                        : 2680& E+ Q$ n% k% Y- t! r* W1 j
Stream size                              : 23.2 MiB (0%), K, u! h) ?, C
Language                                 : Danish
2 g/ g7 n0 d: cDefault                                  : No* ^1 ]- o# i0 A6 e6 ]2 y* D
Forced                                   : No9 T9 \  y+ Y, G( R" H6 P; y
Source                                   : Paramount Pictures Blu-ray
! @( c1 R; ]$ \+ g* {: J  \- V$ `, e4 T) ^* `. b
Text #9
. [; v, o* A- r/ NID                                       : 12
, p0 L) [6 I( l7 C2 R# W5 {  FFormat                                   : PGS1 p% P% J/ E: H% N
Codec ID                                 : S_HDMV/PGS2 e1 y& w3 w# b7 U6 A
Codec ID/Info                            : Picture based subtitle format used on BDs/HD-DVDs( v& C* h- E4 g, u5 }$ x4 y
Duration                                 : 2 h 6 min
4 ?8 y; e9 p5 OBit rate                                 : 27.4 kb/s8 L1 q' l' K' J
Frame rate                               : 0.308 FPS# R& n9 ^; h. G  [
Count of elements                        : 2334
7 B: D0 E1 c6 m0 e% D& I: }Stream size                              : 24.7 MiB (0%)' h. L( g4 i1 H6 s& _- _
Language                                 : Dutch
- i" S& }' h( T/ uDefault                                  : No' S) X  q3 |2 |3 _# ^
Forced                                   : No
! X/ C1 p: J+ m0 h( HSource                                   : Paramount Pictures Blu-ray. k, B3 p3 {( T7 O

8 K9 {2 P5 H6 C2 [1 {; n6 _Text #10
% T# V6 I2 c) V, l7 ^$ m8 @ID                                       : 13
6 q' E5 s% I( D/ u+ o; j' CFormat                                   : UTF-8$ K3 @* W* U9 g: H
Codec ID                                 : S_TEXT/UTF8
. e9 {$ n# q# e9 m* oCodec ID/Info                            : UTF-8 Plain Text3 v3 F# z2 X+ R* o) \  |$ Z$ ?( T* |
Duration                                 : 2 h 6 min
9 n& s% K6 H$ P6 l7 MBit rate                                 : 41 b/s
: C5 [1 d& z3 g  a6 s+ k2 `Frame rate                               : 0.179 FPS
; d9 X. }9 X: O, H: Y7 oCount of elements                        : 1357( W7 q5 R/ ^0 W+ R8 V+ h; L
Stream size                              : 37.9 KiB (0%)
0 c3 z* P2 [( K* CLanguage                                 : Estonian
# {) B0 f5 @5 c% c9 w/ S" Z9 f+ kDefault                                  : No1 D6 `: ]8 O5 ~1 g5 i% b4 u. n
Forced                                   : No  o) B. H8 p: {, Y- A( Z6 x0 ]
Source                                   : iTunes& i! ?4 {  E2 N" D2 [3 l2 l
* C1 L- d: @) L+ j% W1 }6 m( B
Text #111 F4 J3 ?" R. O) q0 V. |2 a
ID                                       : 14: G5 Z1 X/ q3 ?% C3 r6 o( K7 k
Format                                   : PGS
3 v0 G( y, Z% B( DCodec ID                                 : S_HDMV/PGS
- l0 b0 r6 `1 ECodec ID/Info                            : Picture based subtitle format used on BDs/HD-DVDs
( d7 x( A/ ~+ aDuration                                 : 2 h 6 min
! _2 v9 G2 z3 w# {9 @% T% A3 Y  R1 PBit rate                                 : 26.5 kb/s1 `1 g! N* }+ o" z- i
Frame rate                               : 0.336 FPS% V: [# `4 {/ e1 W3 }
Count of elements                        : 2544
3 g% a3 G1 b+ R: I: D* A/ D7 PStream size                              : 23.9 MiB (0%)  `' ]2 A6 I6 \' B
Title                                    : Parisan! X2 b$ |5 }$ Y) @8 B9 G8 C
Language                                 : French (FR)- K1 ?6 e+ X/ q3 {
Default                                  : No
+ r5 e1 x2 A7 [% }" h  _* xForced                                   : No, o: A- @- T) `4 o, n6 a4 I
Source                                   : Paramount Pictures Blu-ray
9 i5 K6 V9 k* H+ w2 }
3 U# ?' Y& _8 ^. H- q3 sText #12# ^# x+ d" O0 j
ID                                       : 15
/ q0 t) V6 S0 P9 wFormat                                   : PGS
. e9 s! P! e* ~( _" S: n1 mCodec ID                                 : S_HDMV/PGS
; a0 G& V' c: \/ o4 Q, NCodec ID/Info                            : Picture based subtitle format used on BDs/HD-DVDs+ w' U4 q3 ?+ H1 n) I6 G3 ^
Duration                                 : 2 h 6 min9 g5 s( K) @. t
Bit rate                                 : 30.6 kb/s! t9 Z4 \' e- _" u+ m
Frame rate                               : 0.362 FPS4 N# I* j! z/ G: e3 E$ F
Count of elements                        : 2736
; ]2 t7 Z4 _  {; ]1 cStream size                              : 27.6 MiB (0%)9 M( P- ?: Z' w7 E
Title                                    : Canadian8 m! ~( i/ i* A1 j( h) U+ ^
Language                                 : French (CA)" m1 l$ l$ }; Q7 R2 R
Default                                  : No1 b5 `6 C* Q9 o5 V) @. c- _
Forced                                   : No# ^) a4 A9 B# p# K
Source                                   : Paramount Pictures Blu-ray' @; K* H; l1 U' c, j

6 t/ b4 m7 H: e* U+ X% A; HText #13
! Y* O. t+ ]3 k$ ~* RID                                       : 16, J+ }) ^1 G9 k2 I& x6 m
Format                                   : PGS
4 [# c$ R) Q& _Codec ID                                 : S_HDMV/PGS: M" d" P! y4 l- m$ h
Codec ID/Info                            : Picture based subtitle format used on BDs/HD-DVDs
; i2 `! o# s% C2 }5 K" yDuration                                 : 2 h 6 min& z- c: {' p9 ?5 M8 _  V1 Q5 o
Bit rate                                 : 29.9 kb/s" }4 J6 [$ {6 H1 d8 k
Frame rate                               : 0.358 FPS5 ?6 Y( P! U) h+ }' i3 G* H
Count of elements                        : 2710
; M" I$ f* @+ M4 x  qStream size                              : 27.0 MiB (0%)  l0 @) H. k* i/ D& ?' |) H
Language                                 : Finnish2 Y* R. E# Y5 B) z% T- D" K
Default                                  : No$ C" x& M6 x' d7 E3 Y! w" w# z2 m
Forced                                   : No
) x& R1 A1 g6 J9 D. v; tSource                                   : Paramount Pictures Blu-ray
# @$ S3 Y) j" e6 y0 h8 ]1 ^
6 X$ V  F3 @* v" p! f1 @2 A8 fText #14
, `! v+ m+ Z* ]1 f0 y8 f3 y, A. nID                                       : 17/ P+ F# d& V% U  E- ^, D: N% G
Format                                   : PGS
# ~6 Z2 `/ k: L2 L8 }, HCodec ID                                 : S_HDMV/PGS
0 K0 F5 c. M" }! M% p6 c( ZCodec ID/Info                            : Picture based subtitle format used on BDs/HD-DVDs
1 N# n% u- c2 s. g1 e( kDuration                                 : 2 h 5 min
- b  Q7 r$ w( p2 c* ?  m' }Bit rate                                 : 28.0 kb/s5 y6 D. q0 W: V3 h; }( o# l! X0 I
Frame rate                               : 0.332 FPS
7 R7 {; [, h" d0 \  v# @2 {Count of elements                        : 2496
+ \2 z3 U% F2 t2 eStream size                              : 25.1 MiB (0%)
4 n. j& V& Q8 }' u/ FLanguage                                 : German
# h) K* F- A& u% ]0 ]1 h3 W9 uDefault                                  : No
2 O) k# t5 D: }" x9 \Forced                                   : No
) S# p; X; W6 ZSource                                   : Paramount Pictures Blu-ray$ e( K# r+ C1 E, w3 B) ]
8 x! R6 M4 Q; H2 s7 T* I
Text #15# }, v* U" o: N8 @' I, U. Y( t
ID                                       : 18
! H6 M) i1 g2 k* X, YFormat                                   : UTF-84 o# ~" p' j& Y
Codec ID                                 : S_TEXT/UTF8
* j0 S; ]/ a. k4 a4 h  pCodec ID/Info                            : UTF-8 Plain Text! @4 [! \% H- E4 l% Y
Duration                                 : 2 h 6 min. X- Y! M# `4 t. S3 H( M
Bit rate                                 : 74 b/s
  T9 E' E, [+ ?* t2 N2 wFrame rate                               : 0.177 FPS
# m! c* ~% W1 D) ~' ?" Z+ ?Count of elements                        : 13413 W  f  j7 \6 j* u% f
Stream size                              : 68.7 KiB (0%)1 C, n& E, \" z1 u9 T: P6 l* P
Language                                 : Greek+ [$ H5 d4 [) B6 m: `' h6 u
Default                                  : No
2 U; d8 B& Q' B! FForced                                   : No
; y( R, b% ]7 G0 bSource                                   : iTunes
* o& @. H+ U: b9 b2 S  p
% ]& u% H; ]& r0 T8 PText #16
9 Y/ B$ c! p6 [+ s* y' x- H4 \ID                                       : 19
' [9 i% P; ^1 o) w7 a9 M: JFormat                                   : UTF-8
# K, B5 s  e( [. z, C4 ~Codec ID                                 : S_TEXT/UTF86 y1 F( p4 N% q" X1 ?/ N& A
Codec ID/Info                            : UTF-8 Plain Text) o1 h3 ?0 U8 ]
Duration                                 : 2 h 6 min% i4 }9 Q4 y0 S0 ~7 p
Bit rate                                 : 61 b/s
2 W4 |' t" e( y# F8 oFrame rate                               : 0.180 FPS; j. _9 s# _( [
Count of elements                        : 1362
. Q7 _; R8 P) |- MStream size                              : 57.1 KiB (0%)
7 n  z, @9 X+ J4 L) \+ I5 LLanguage                                 : Hebrew
  a2 P, ]6 R* o. P8 z' Z$ RDefault                                  : No
2 i4 t6 P3 e2 s+ j  D) z2 b+ BForced                                   : No# x% @, m/ }6 w" [. N. A% ^/ o: ?2 G
Source                                   : iTunes
' ?8 g, D% G; a0 W" ?$ Q' a; p
, |0 X" _' y& G8 r" YText #17
5 |: l' f- Q8 \+ [# RID                                       : 20; W8 @( ?7 S- S4 g6 T- ?4 ?
Format                                   : UTF-8
7 l: ]( M% F. g+ fCodec ID                                 : S_TEXT/UTF8. T1 {1 m+ i4 X
Codec ID/Info                            : UTF-8 Plain Text
  x2 P4 W/ v& L3 s: G" n0 G  ]Duration                                 : 2 h 6 min
+ L8 m. w7 \1 ?7 I' B! yBit rate                                 : 113 b/s; J+ {8 E. i9 z! A' V
Frame rate                               : 0.180 FPS  Q  k* e2 H7 }- }8 g! [
Count of elements                        : 13648 M/ A$ Y. I( v' p4 I& o% F3 H: |
Stream size                              : 105 KiB (0%)
! H) e% ^, z& E3 U) WLanguage                                 : Hindi
* z8 s& P: i( v# I; HDefault                                  : No
, M, u* c3 ?& n4 {; CForced                                   : No% Y0 Q2 p$ H6 f2 v
Source                                   : iTunes
7 ]: e( Y" Y* v" W8 _
) a6 t( f# G( `' \8 [4 IText #18
; t# t- X5 A. _5 \9 c7 kID                                       : 21# C! O- a/ _, M" g% D
Format                                   : PGS
* o. B* ~# a, u, U. z* W2 uCodec ID                                 : S_HDMV/PGS
; `4 g1 P  `$ C5 `Codec ID/Info                            : Picture based subtitle format used on BDs/HD-DVDs
) P" L, H% d7 N! PDuration                                 : 2 h 5 min
! [' \+ w8 ]: ~$ C- [( z; Q/ C  pBit rate                                 : 27.6 kb/s& U, ]9 E  Z9 K  }" b1 H7 d
Frame rate                               : 0.346 FPS% F, }& k" [7 |* I9 X& t9 o
Count of elements                        : 2602
+ z; T+ p% Q/ U' O. dStream size                              : 24.8 MiB (0%)
" _/ m( m) W& |1 Y3 T, tLanguage                                 : Hungarian/ I+ V: l! W5 A& i# H* W0 o
Default                                  : No/ ]$ v2 @# s( f2 i  z1 \" b
Forced                                   : No2 d* S2 M( ?6 w5 l
Source                                   : Paramount Pictures Blu-ray; ?, ^$ ?3 i1 W) W: ^9 j

# c, \9 R* u$ a6 f9 O& }( h0 |Text #19
  n; Y+ y* @) U; s* I8 YID                                       : 22; |# T% b; x, D8 {3 B" `) m
Format                                   : PGS7 t' r0 z: A( D1 o% U7 w2 j
Codec ID                                 : S_HDMV/PGS
, M- I0 _7 a1 B% w0 @Codec ID/Info                            : Picture based subtitle format used on BDs/HD-DVDs  v6 y, B: T, q
Duration                                 : 2 h 5 min
6 {% Y/ f% |8 p' g- z1 A7 Z+ q" yBit rate                                 : 26.4 kb/s; K$ j* {+ W& P
Frame rate                               : 0.360 FPS$ V" i! Z, z5 c- a& Y
Count of elements                        : 2708
) X4 D6 [4 }8 j, _) `1 l, ^Stream size                              : 23.7 MiB (0%)1 k& p1 h+ F) |; q
Language                                 : Italian- C' F/ _9 J; ^2 p
Default                                  : No: V* e9 H- X0 i4 z7 N1 g4 t7 `6 G- d
Forced                                   : No1 u2 C! Q! i& ^! d9 A
Source                                   : Paramount Pictures Blu-ray
) s7 O, T2 s" m, i3 C, F. W. F  T0 p+ X
Text #20
8 X. U8 U3 p7 d9 Y' O. x% @# ^ID                                       : 23
. J8 s; x7 V6 TFormat                                   : UTF-8# c2 \0 e. m( v+ k
Codec ID                                 : S_TEXT/UTF8. a5 d5 l# V6 Z8 F
Codec ID/Info                            : UTF-8 Plain Text
: X0 z/ ]- r7 zDuration                                 : 2 h 6 min
+ N& ]3 D; A5 B2 L6 e" yBit rate                                 : 41 b/s7 ]+ S8 P- J  b
Frame rate                               : 0.179 FPS
, e4 r1 @; p; c# ^& oCount of elements                        : 1357
/ U3 ?( n7 N# y; C8 M) E; AStream size                              : 38.7 KiB (0%)
$ s. E) Z7 ~7 C7 c/ g0 ?* rLanguage                                 : Indonesian. u7 |/ F; _7 @, P! ]
Default                                  : No" V% ^. c6 a. W& c
Forced                                   : No& J5 o. I* P; H
Source                                   : iTunes  ^& e" |+ C% j. ]
! n" D% H0 ?5 E& r' N; d
Text #21
) U' `, P8 I: o( F4 hID                                       : 244 c. t3 A  O* h: n9 ^" M8 U
Format                                   : UTF-8, W0 w: j3 q! t7 u( \5 i1 r6 o
Codec ID                                 : S_TEXT/UTF82 ~$ E3 d3 T. V( c. H
Codec ID/Info                            : UTF-8 Plain Text
& |$ u9 J4 M3 w! K* Z7 }, pDuration                                 : 2 h 6 min, H, m, |/ Y3 h0 K( o
Bit rate                                 : 37 b/s4 m0 _! P2 ]0 F8 F
Frame rate                               : 0.171 FPS
* y) @! k# }$ z9 [0 mCount of elements                        : 1291& K' C* f/ ?8 p  ^# Y
Stream size                              : 34.2 KiB (0%)
: B$ m# }8 [' O6 a4 r2 `8 MLanguage                                 : Japanese
9 k5 r5 ?; @& c# k9 @" g! y1 X7 sDefault                                  : No. _  a+ ~  s( [- o- T
Forced                                   : No
1 B  E- ?6 s- l1 R% I0 g$ vSource                                   : iTunes
& g6 i, d) ?" S" [3 l; `8 P
; c) _/ `6 c4 R9 W' e* VText #22
% H8 i( [- z$ s. W0 s8 u# M/ RID                                       : 254 J! L# h, w( `- ]8 M
Format                                   : PGS
6 ]8 I' c4 E, o9 I% X  `$ WCodec ID                                 : S_HDMV/PGS
# L& k3 M: ~! m# dCodec ID/Info                            : Picture based subtitle format used on BDs/HD-DVDs
1 `8 Y+ `6 _, kDuration                                 : 2 h 5 min4 ^  Z# M& ~0 l9 U/ s' t- I
Bit rate                                 : 18.6 kb/s
  c& n9 {8 _1 s1 BFrame rate                               : 0.360 FPS: n3 z% Q$ n; L7 L% `
Count of elements                        : 2710
* ~8 g# Y2 Y4 bStream size                              : 16.6 MiB (0%)  C: q' x; L( Z
Language                                 : Korean
$ f) p6 ~& I) b% z- X4 HDefault                                  : No
( s! a8 _! }4 V* X# TForced                                   : No# f, Z% e9 c0 K0 H; P$ S0 j
Source                                   : Paramount Pictures Blu-ray) j# [7 G& w, x# W

! n$ z7 m: l6 z9 r1 y. t$ ~# [! ?Text #23" A& h9 N1 \; e1 _
ID                                       : 26( y0 r& b* H- r, O5 P, m
Format                                   : UTF-8
' w! X, t! u" v* s9 {: DCodec ID                                 : S_TEXT/UTF88 x2 D8 y; \; f$ F6 e# T/ }
Codec ID/Info                            : UTF-8 Plain Text6 K3 T1 R$ f( Z
Duration                                 : 2 h 6 min
' v$ l1 }; q, ~! bBit rate                                 : 39 b/s
6 Y6 V: \. e" hFrame rate                               : 0.181 FPS
8 ~# I2 o8 `) T' I" U# |Count of elements                        : 1366( ^7 A7 K2 [6 P3 b0 C
Stream size                              : 36.6 KiB (0%)
( w' a$ h$ T9 t0 ?5 @Language                                 : Lithuanian
3 `  e! z2 h1 a7 u$ oDefault                                  : No
/ H4 }* f) B; ]. q: zForced                                   : No' A, O' l* {0 M( S+ u, I1 r' {4 m
Source                                   : iTunes
, f$ ^& C: j' p
7 L: |( ]; \- f5 Y. }- u9 @5 G3 kText #24
  ]2 e$ U* u2 u8 mID                                       : 27
# b) y  z. W" Q, N, ?+ kFormat                                   : UTF-8
( I9 }. k  i# g! ACodec ID                                 : S_TEXT/UTF8
& H7 F1 M* K! E# `) L* Y- s. W6 ZCodec ID/Info                            : UTF-8 Plain Text/ G' J8 S' P: z2 j/ Y
Duration                                 : 2 h 6 min; f1 h) I1 Z8 x
Bit rate                                 : 42 b/s
: R9 D7 l- Q" V" }8 D( N; }- nFrame rate                               : 0.180 FPS
2 V/ r& B$ e0 x( u( g3 {3 o7 u/ rCount of elements                        : 13648 \& S5 A4 n0 g0 {$ f
Stream size                              : 39.6 KiB (0%)
; {5 m1 u9 U$ z! a  ?; }0 ALanguage                                 : Latvian+ K- ^; T1 E3 V; Z3 k6 V: z3 c6 s, I
Default                                  : No, R6 h" ]  n! D5 T  x
Forced                                   : No
! O$ e) ^" h, I+ _9 ^Source                                   : iTunes
2 S- v& y5 D/ X& N8 W' R8 ]0 V) Q; K  t, J
Text #25
9 z, {0 D# Z* z9 q* O. }ID                                       : 28
3 m, W  G1 K1 [3 S! }1 zFormat                                   : UTF-8
! Z* }' l8 A* _8 RCodec ID                                 : S_TEXT/UTF87 q. ~' H0 j1 f* N8 a2 t& a
Codec ID/Info                            : UTF-8 Plain Text- a7 u- @2 V6 A7 n% b( B
Duration                                 : 2 h 6 min
/ P: k2 v$ F0 g1 dBit rate                                 : 42 b/s
% ]0 `% ?, f1 u) d) O: \5 z& U  wFrame rate                               : 0.179 FPS& a7 l9 j& c* D8 r+ z
Count of elements                        : 13541 q! X& p) s! f, M
Stream size                              : 39.3 KiB (0%); l6 A  I" F1 M0 ~
Language                                 : Malay( e9 K0 u8 a$ q- c$ u) C
Default                                  : No
% W2 e  ^7 N6 uForced                                   : No
, l2 d9 p8 Z0 [$ tSource                                   : iTunes
' g$ N' J- a, ~" c! ]4 u/ l4 u
Text #26+ x& x- k3 t! y4 W# E3 e5 \
ID                                       : 293 I- z" Q/ k. U, j. O* a
Format                                   : PGS) y( p5 q! _  P! ^% g
Codec ID                                 : S_HDMV/PGS7 C6 E* x, z) j. S, n8 g- P
Codec ID/Info                            : Picture based subtitle format used on BDs/HD-DVDs: b* z1 j  V! r* Y
Duration                                 : 2 h 6 min8 i$ m" F6 s  W5 i
Bit rate                                 : 26.6 kb/s
3 P  T$ K( B: O) Q, o. P5 rFrame rate                               : 0.346 FPS
) y$ d, W, F, xCount of elements                        : 26169 H3 Y# O0 C6 _: z4 P( [, E
Stream size                              : 24.0 MiB (0%); Y0 Q. f. y2 n+ c0 @
Language                                 : Norwegian: [5 r; q, E- p* B
Default                                  : No! Z2 N6 Z: ^4 g  |+ K
Forced                                   : No
; a* t' u0 S% H: ^* a/ r; F- l# `Source                                   : Paramount Pictures Blu-ray
# X: @: h8 L3 z% I
! _* V. D  s( A; z, EText #27! ]6 S7 l! R8 y- ?' F4 b: N' C: |
ID                                       : 30
7 L5 T6 L; X7 A) U. W! LFormat                                   : PGS# S; L% H) u- z) u) V
Codec ID                                 : S_HDMV/PGS$ t5 R0 _" i( D4 u$ r
Codec ID/Info                            : Picture based subtitle format used on BDs/HD-DVDs0 |! I4 @) J* H! b3 K
Duration                                 : 2 h 5 min$ P8 t& k( I/ ]  [  D1 W' {2 Q; d) u
Bit rate                                 : 24.9 kb/s6 g" m. I& s# M( X: a. H2 X7 h/ i
Frame rate                               : 0.361 FPS' m* |5 k1 ]- j2 S' c
Count of elements                        : 2716
2 U- [6 s/ K& L& @* hStream size                              : 22.4 MiB (0%)6 j% D5 C$ @0 }9 {4 R5 E' \- x. i
Language                                 : Polish/ V! i8 o# F& V, M/ Z- u  p4 k$ V
Default                                  : No
4 `2 E9 z: c# a( H4 a) P: l4 |Forced                                   : No
0 Z' u" E3 m( v+ d: bSource                                   : Paramount Pictures Blu-ray/ ]9 Y' W# j8 c

! _( u  U7 i, _7 W/ J6 CText #28
/ \. V# O9 X. O. C8 aID                                       : 31
% |3 w2 a# n" ~& ?- |Format                                   : UTF-8; g* C6 e' q7 X+ q' O
Codec ID                                 : S_TEXT/UTF8
5 I( }- z+ g, p% {Codec ID/Info                            : UTF-8 Plain Text
: h! D9 n" I' P' o/ ?Duration                                 : 2 h 6 min+ q1 v/ ^6 Z. M9 s- h, O
Bit rate                                 : 68 b/s
1 r3 |0 {3 \& ~! @Frame rate                               : 0.180 FPS
+ _0 w$ Z! Q  NCount of elements                        : 1362
1 H( ]# A8 Q  p( u; m' B, ]Stream size                              : 63.3 KiB (0%). i! o6 |1 A9 x9 b
Language                                 : Russian& x$ _& G" y5 Y& a
Default                                  : No! j' T9 P' o: ^* w
Forced                                   : No
- d5 L. }5 _1 ~Source                                   : iTunes
$ o- }2 v# Y4 E8 }" {  P6 B" Q8 E' i/ Q5 T, ~, h
Text #29/ b" C9 ^) R8 y8 k" c5 d8 D) D1 M2 c. U
ID                                       : 32! V; ]" c1 K8 |, U! U  X
Format                                   : UTF-8
0 b+ z. S- M1 J. t% `/ [$ i! a2 zCodec ID                                 : S_TEXT/UTF8
: z. Q! B8 _: f* m3 `& M% n9 x  M: wCodec ID/Info                            : UTF-8 Plain Text
( Z- i! a) v/ W, I% K* J1 [( V2 g- D, ^Duration                                 : 2 h 6 min' }7 B( H; ]! n9 i
Bit rate                                 : 36 b/s( d5 C, K- |/ |
Frame rate                               : 0.166 FPS
9 Q, h0 l& l" ~. I) R- ACount of elements                        : 1256) n1 Q' T7 x! B6 p: \6 R- Z
Stream size                              : 33.7 KiB (0%)
8 h# l+ b% i% X$ _4 J. \6 i2 gLanguage                                 : Slovenian
3 k5 x, Z' J! zDefault                                  : No7 o6 O, X$ [/ K- ~. Y4 `% n8 F! B" M
Forced                                   : No4 t8 S# ?5 K; }
Source                                   : iTunes
" H' O, d/ p8 B- j4 B% y$ b0 R+ Z7 J' B1 A
Text #30( z8 q( R4 b  l% j4 Q
ID                                       : 33
) S& G/ U9 p) U/ `1 RFormat                                   : PGS
' b( P8 \/ S8 x* J' K1 A! yCodec ID                                 : S_HDMV/PGS
4 E( N; L6 `# iCodec ID/Info                            : Picture based subtitle format used on BDs/HD-DVDs
* z4 R4 N  U! }7 `; YDuration                                 : 2 h 5 min, R9 d' H4 m/ L) {) ]
Bit rate                                 : 23.5 kb/s
+ M: ?( m: n, ~# EFrame rate                               : 0.360 FPS
0 g: f7 ~/ T: }/ e8 Z3 x4 o& s4 vCount of elements                        : 2706# p! _. I% i; H4 V  |( J
Stream size                              : 21.1 MiB (0%)
' g' i+ F5 `' N8 u0 z  b6 XLanguage                                 : Slovak
: \* n4 O5 J( z! n2 g+ JDefault                                  : No* I5 \: X! z5 f1 A% f9 p
Forced                                   : No9 {3 N6 u  S+ j
Source                                   : Paramount Pictures Blu-ray
8 t. Q, D, a! ]- \$ h  Z6 g7 {) N& J! F0 d; Z0 h' _6 }
Text #31
; c4 m) O: ~* n) U  K( n  lID                                       : 34/ j6 ?& b7 M9 d2 x6 g# }( f: z
Format                                   : PGS- N0 f3 @- O' S
Codec ID                                 : S_HDMV/PGS
- u4 z7 t: H% U* d% P  TCodec ID/Info                            : Picture based subtitle format used on BDs/HD-DVDs
7 J& \) e" u# z# b; ]5 A+ ^Duration                                 : 2 h 6 min
7 M" d$ x$ w3 G  f# Y( N' UBit rate                                 : 29.2 kb/s7 b# H, i$ d- Y0 r
Frame rate                               : 0.360 FPS; M# x; P7 V* q6 V# f3 Q1 d! _  B
Count of elements                        : 2722
& ]% f6 u& O3 S, EStream size                              : 26.3 MiB (0%)
3 s+ e* ?1 X- L2 n3 N& W( qTitle                                    : Castilian
. k! O( q5 ^) G0 ]9 ~Language                                 : Spanish (ES)7 S0 L! J; Q, C7 f7 F
Default                                  : No
/ _9 l* ^5 _' E6 z2 ^( \2 `9 MForced                                   : No% H. \6 k( y) P2 }0 D# C  W
Source                                   : Paramount Pictures Blu-ray
. {% a8 l+ q. K  V3 K+ n
! `  @( M6 l- S6 BText #325 ]# E5 e1 m+ a, J
ID                                       : 35
% M8 h  Y2 T1 a/ l9 @Format                                   : PGS1 L3 p# F2 t9 m: K8 h7 ^; b
Codec ID                                 : S_HDMV/PGS" i# i* Q1 `* G8 [, q  f! L" D
Codec ID/Info                            : Picture based subtitle format used on BDs/HD-DVDs5 P% H* ^( T1 O
Duration                                 : 2 h 6 min. ~3 C; i1 o& N
Bit rate                                 : 26.4 kb/s( ?. f  D  J5 ?& D
Frame rate                               : 0.356 FPS/ V: g" |" C* I! }- x
Count of elements                        : 2694$ M: J+ e) F6 W+ N
Stream size                              : 23.8 MiB (0%)
0 e( k, W. u" t0 eTitle                                    : Latin American
% M8 {! V5 |  M5 c  j# ^Language                                 : Spanish (Latin America)
/ Z+ J5 k) \9 `* `Default                                  : No. }) ?: Z- {, z, `! |* r8 v
Forced                                   : No
3 [1 [. C; L! x+ `0 ^# r( G: SSource                                   : Paramount Pictures Blu-ray
8 X- p) g2 m4 @2 g6 t1 X# `+ U' N; T1 ?& I* M% Z) f+ r
Text #33
- z8 z3 c# }/ sID                                       : 36- a8 @- Y, ?: q% [
Format                                   : PGS
" M# ?/ P7 }! @0 o# {. x) G# hCodec ID                                 : S_HDMV/PGS0 p8 u0 V  N7 Q: ?! _
Codec ID/Info                            : Picture based subtitle format used on BDs/HD-DVDs; z  N6 E: |, j+ @& |, e% t
Duration                                 : 2 h 6 min
; V) ^+ c4 P$ VBit rate                                 : 26.7 kb/s; z# }4 k: p$ N1 |% R
Frame rate                               : 0.322 FPS! r$ r# q+ d) ?: f/ N3 ~! n) B
Count of elements                        : 2438
6 n; @* c$ Y# `! M# |" r/ d7 @Stream size                              : 24.1 MiB (0%)
, \' R6 v/ N0 A+ G: A& @Language                                 : Swedish
2 X5 e. ~" z1 a$ M( F8 r% ?2 kDefault                                  : No! W7 B# h( V' H' U0 J$ k
Forced                                   : No
% ^  Y" B' b; lSource                                   : Paramount Pictures Blu-ray
* @( F' j5 R, T& r* x1 Y& x* t& a, o  Q' ?8 `" M
Text #34
$ l. [6 o& r6 x8 RID                                       : 37
3 S# p$ O9 _' O# A$ i7 F: GFormat                                   : PGS
: k" a5 A/ f4 B3 p( G3 xCodec ID                                 : S_HDMV/PGS/ S1 Y% L3 D. f( T1 n& |
Codec ID/Info                            : Picture based subtitle format used on BDs/HD-DVDs: W7 |  I% k, _% m
Duration                                 : 2 h 5 min- W7 D( |& E7 U) G5 g7 X6 D
Bit rate                                 : 20.8 kb/s
! @9 h$ i9 w0 sFrame rate                               : 0.361 FPS
0 p$ f8 R4 T' i9 P% Q, N- @) GCount of elements                        : 2718
" E8 c( _& v7 q8 s# V0 B  TStream size                              : 18.7 MiB (0%)
' G# h! k& n4 s7 T% [0 @: x/ ^Language                                 : Thai
. A; K6 T2 H+ }5 `Default                                  : No
1 T( `3 v# r- }. A$ qForced                                   : No7 q' ~& R" y' I1 z1 D2 I( q8 ?  D
Source                                   : Paramount Pictures Blu-ray
4 u$ E) h4 @/ C
1 b* j; t% i. S8 \6 JText #35, c+ U9 n6 c/ h" g$ v" b! L
ID                                       : 38
% _3 c1 V" t0 c1 [Format                                   : UTF-8/ c0 I7 e" q$ x
Codec ID                                 : S_TEXT/UTF8! L- `. L' n* G$ V, ]
Codec ID/Info                            : UTF-8 Plain Text
4 c5 I$ V' v* e6 _2 t& @Duration                                 : 2 h 6 min+ `+ g3 Z4 I. n) U! i- ?8 a$ ~
Bit rate                                 : 122 b/s$ }+ |9 @% k4 g3 \& ]: Q0 ~
Frame rate                               : 0.181 FPS
* u9 ?$ z' ?0 h* BCount of elements                        : 1365* r% [8 `$ \# c- B8 Q4 U
Stream size                              : 113 KiB (0%)% U1 ?$ T3 ]. G6 d4 r- f
Language                                 : Tamil
/ F8 U+ L' L, G; mDefault                                  : No
: G/ X$ _$ j2 D4 e% VForced                                   : No
, U1 x- J  r: N) I0 {* `' z, eSource                                   : Amazon Prime Video
) M. B4 u1 {7 W; w! U+ U
6 g0 w! e# B5 @7 y( HText #36
: g3 S- R0 k2 I" w6 b! s$ \3 bID                                       : 39
' T" x& e6 r" _7 D+ @3 aFormat                                   : UTF-89 e% \5 p9 S. `; F
Codec ID                                 : S_TEXT/UTF8
* v' p6 o3 R& v& k0 {Codec ID/Info                            : UTF-8 Plain Text
& U. {9 x. [4 {5 QDuration                                 : 2 h 6 min
; ?- N' X- r1 Q) f+ y) G& Y  [  X9 V' BBit rate                                 : 120 b/s% o2 ?5 Z+ {5 r6 Y. H0 l! F2 ^
Frame rate                               : 0.180 FPS
" K% }7 F3 `' \+ D& r0 yCount of elements                        : 1364
' J2 w" E( Z$ V- OStream size                              : 112 KiB (0%)
: S5 n" g% V9 f) t0 s2 \5 C" nLanguage                                 : Telugu) x  \* t9 p' c
Default                                  : No
& [& E5 _2 C# ]Forced                                   : No# ?# W+ b# w2 c
Source                                   : Amazon Prime Video
0 u& {( u# `: Y0 O. e1 s9 |/ }3 {4 O- k
Text #37
+ \9 r  i7 f/ s3 o% v2 K. I4 r9 LID                                       : 406 [: A) l; _& D# f4 V, c4 ]4 d
Format                                   : PGS) x: s$ ?7 m8 Z" {# g( F- D" ^+ L3 ?
Codec ID                                 : S_HDMV/PGS/ C$ h. }- D  j" F- j2 S+ z4 Y8 K8 F
Codec ID/Info                            : Picture based subtitle format used on BDs/HD-DVDs
* c3 X6 g8 u! q; K: V! W: y' dDuration                                 : 2 h 5 min
( x3 C; B5 \5 w1 [6 aBit rate                                 : 27.0 kb/s" O* s2 A% ]* n( u  r$ A
Frame rate                               : 0.363 FPS6 c, [) a( Z* f! S3 l5 ]/ d
Count of elements                        : 2730: [- l- w  h3 o, i
Stream size                              : 24.2 MiB (0%)
: o1 I* E2 f/ w! P  `/ o2 a0 q& iLanguage                                 : Turkish
1 `9 H- ^% O. H( {" M! i, P$ ZDefault                                  : No1 e. G  t0 b+ f) W% Y  e
Forced                                   : No1 ?* d2 ~- f/ J/ T- b  A1 M& e! V
Source                                   : Paramount Pictures Blu-ray
: ?/ Q' `9 ]3 u, H4 f, N
# @2 x: h6 |9 c# N2 ]3 cText #38
' v2 z* H7 @! B4 @& ?7 y; @. o4 @9 Y5 }ID                                       : 41
) p- _/ B% [& f/ j5 `" m8 nFormat                                   : UTF-8
, \2 x# V. [% I- F( F' ]5 T$ qCodec ID                                 : S_TEXT/UTF8
5 E8 [& s# R  u) w! m; R& o# ECodec ID/Info                            : UTF-8 Plain Text. r8 e2 i$ f- T/ h  R
Duration                                 : 2 h 6 min" i! Y) _) V. v' A; [! `
Bit rate                                 : 65 b/s+ z  f9 w9 K; J# ~# H. V+ A$ A9 _
Frame rate                               : 0.179 FPS: t* d6 V" ?6 H/ K" Y; t
Count of elements                        : 1357
3 o! B: c5 Q' R! V, |Stream size                              : 60.5 KiB (0%)
# f/ J% Q  Z( ^* }% s* q6 w1 BLanguage                                 : Ukrainian
) V3 Y& W; a2 w  X  PDefault                                  : No3 ]% o" ~2 F5 k! R) D& E; U' U
Forced                                   : No
' w  c& K: ~" ZSource                                   : iTunes+ R- m9 s) y) H' c. u3 ^$ ^

- m! \5 i, [- G0 V3 {1 L+ TText #39
- f9 Y* J1 B+ n: ?0 ZID                                       : 42: ?+ I/ |& B# ?' B  z& Y. u5 I
Format                                   : UTF-8
% d9 g* A$ H2 ?# oCodec ID                                 : S_TEXT/UTF81 b$ e+ ?7 m( V( _+ u/ k
Codec ID/Info                            : UTF-8 Plain Text
1 q5 ~% e  l7 NDuration                                 : 2 h 6 min
5 D* E% U2 ~: F& u5 [Bit rate                                 : 55 b/s
- v8 u2 `# G% ^  _- \0 BFrame rate                               : 0.180 FPS/ D4 E: F9 f$ `: p. P
Count of elements                        : 1362
! ~% P  }' z3 m/ r0 P, y+ jStream size                              : 51.1 KiB (0%)
+ @' ^: B) y. S5 D3 a5 g$ N6 fLanguage                                 : Vietnamese
- _* G8 T. C3 y7 W6 ?! X% g2 wDefault                                  : No
# p) m0 l$ o2 f, F: oForced                                   : No9 r: V2 q* @% A2 F, x
Source                                   : iTunes
0 O2 D: i% Z+ c) }
( g0 m4 `  x, ]Text #409 G6 z  E/ o0 m& V2 S7 S+ D2 D" g3 R
ID                                       : 43# `% A* k/ Y+ A: V% E
Format                                   : PGS0 i8 L2 B2 k4 \( B. S
Codec ID                                 : S_HDMV/PGS. M! |/ J+ z8 Z( k2 L* {( }
Codec ID/Info                            : Picture based subtitle format used on BDs/HD-DVDs
6 S, F4 m- W% q( i& `9 i. _Duration                                 : 2 h 5 min$ u6 c, Q( g3 g) I7 t; O
Bit rate                                 : 22.3 kb/s
! n4 n, X/ ]8 DFrame rate                               : 0.361 FPS" U& |1 w* L( Z, [/ S
Count of elements                        : 27160 g5 ?* u5 l0 x5 B
Stream size                              : 20.0 MiB (0%)* r' z5 p! \( ]) V4 b6 n$ O" h% c) J
Title                                    : Cantonese Traditional
$ Z; A; ]" C  ^' Q- w+ D4 m3 b' HLanguage                                 : Cantonese (Hant)' k7 {: v" O0 Z3 ^, }
Default                                  : No
) u7 S" u2 k2 p+ zForced                                   : No
( B* j  @9 m0 OSource                                   : Paramount Pictures Blu-ray
; l- }! ~7 v% @3 H$ z
- p/ n  s( y' E: ~1 y1 W$ SText #41
" T6 r# x. r, U# F, rID                                       : 44
; q/ r% Q& i; Q0 g' I1 vFormat                                   : PGS
( R. D9 @# l/ Q& ^6 Q2 E. cCodec ID                                 : S_HDMV/PGS/ [. e6 Q9 P- v- G3 x! A$ f
Codec ID/Info                            : Picture based subtitle format used on BDs/HD-DVDs) q0 Q6 T1 N: d
Duration                                 : 2 h 5 min
; r- L8 s; p% DBit rate                                 : 20.4 kb/s
3 p2 K% z8 P, Q8 `Frame rate                               : 0.363 FPS
3 z: L/ C9 V. Y+ X5 [" |Count of elements                        : 2730! v) o% J: u& o  v. h* x% d$ F$ `
Stream size                              : 18.3 MiB (0%)- C4 t3 Y- j7 \6 O8 X+ g3 i. |
Title                                    : Mandarin Traditional- t7 L. _* h; j' F3 i
Language                                 : Chinese (Traditional)
4 M# q( z: T! j2 ], `: H8 w2 UDefault                                  : No- d+ z( b9 }- l& E0 J4 I. F5 n
Forced                                   : No
1 q4 N4 C1 N( w+ MSource                                   : Paramount Pictures Blu-ray9 l) M  q; c. j9 {

1 f1 w6 e0 ~. BText #42- c1 h+ J0 r0 L0 Q
ID                                       : 45
1 Q" B4 a6 D5 [: \- `6 q, eFormat                                   : PGS
6 ?1 W( I; ~! r# [7 c5 gCodec ID                                 : S_HDMV/PGS
1 J" G# B# O7 K: S$ G+ `& OCodec ID/Info                            : Picture based subtitle format used on BDs/HD-DVDs- G' H" u( T; i+ ]# ~4 v6 x
Duration                                 : 2 h 5 min" h3 j/ b' E, R; v
Bit rate                                 : 22.6 kb/s
5 Q) P1 ^6 X2 ~Frame rate                               : 0.362 FPS
1 X5 k: d7 {. M$ G2 c0 I: v  |. mCount of elements                        : 27202 _# `6 d, v  g
Stream size                              : 20.2 MiB (0%)
3 d% K9 g+ Y9 n$ w! t* C- hTitle                                    : Mandarin Simplified% J' X. V: e" a2 D$ q: d
Language                                 : Chinese (Simplified)2 @+ u* \" a7 v4 O( L# e
Default                                  : No
# S3 d6 O; C, u2 pForced                                   : No8 q* v8 n2 H0 k6 f
Source                                   : Paramount Pictures Blu-ray8 @. s+ ?7 L" F* j6 R+ I
  b5 U3 Q7 Z: u  N4 t0 k
Menu4 X9 l% R$ m0 K! _/ u1 c, o9 C
00:00:00.000                             : en:Chapter 01. k! n! q  a1 K* Y! ?8 H7 H. I
00:06:17.002                             : en:Chapter 02" z+ B$ F' z' p2 K' J8 F
00:15:53.327                             : en:Chapter 03
: U9 a* V2 P/ r  m! w00:23:23.527                             : en:Chapter 04" U$ Y! n7 t) d4 Z) S
00:29:30.727                             : en:Chapter 05# p( _* f% e( Q& l) f# J4 P0 V1 E5 Y
00:36:34.776                             : en:Chapter 06; P2 x' ?' ]. ~# J
00:46:33.082                             : en:Chapter 07" Z, |9 T1 d0 _' @0 v* o6 C$ z
00:54:31.018                             : en:Chapter 08) A  [5 r- K6 z9 @2 b/ f6 w
01:01:05.328                             : en:Chapter 09" d4 s# |8 J( ~" q0 I
01:08:10.003                             : en:Chapter 10: `! G. i# G# W) G# U& I9 ^2 d. s) ?
01:17:10.501                             : en:Chapter 11
8 K# x8 S* Y' {4 l' \5 ]/ T01:25:02.889                             : en:Chapter 12
  Y; {: R' r! u; `01:32:21.286                             : en:Chapter 13
# @# u7 [6 ^, X% U$ N7 F/ J" B01:40:25.811                             : en:Chapter 14
. M1 U/ `' Z( V01:50:07.059                             : en:Chapter 15
. m6 ?- p8 l, A: u$ \$ D$ S01:54:20.353                             : en:Chapter 16

& ^+ A' V4 \. s! ~7 B- o  D
游客,查看本帖隐藏内容请回复 | 加入VIP可免积分免回复 了解详情 | 还不是会员:点击获取邀请码 Invitation Code

283

主题

534

回帖

5071

积分

Sponsor

金币
179 枚
体力
3206 点
zhangwenbin 发表于 2023-10-13 14:34:14 | 显示全部楼层
变形金刚7:超能勇士崛起 [4K REMUX无损版 内封中字] Transformers: Rise of the Beasts 2023 2160p UHD BluRaycd REMUX HEVC TrueHD 7.1 Atmos-CiNEPHiLES 62.40GB5 Z( t# K0 |7 L
https://forum.bluraycd.com/thread-63614-1-1.html
  h2 c4 f) h! C- Q/ y3 o$ f(出处: BluRayCD Forum)# T5 c. \% f$ E  d4 |
蓝光论坛里

31

主题

4115

回帖

2万

积分

Sponsor

金币
3088 枚
体力
9924 点
QQ
shiji1973 发表于 2023-10-7 12:29:58 | 显示全部楼层
看了LZ的帖子,我只想说一句很好很强大!""
& }$ Q+ ]; y2 u: @祝愿蓝光社区越办越好!I wish Blu-ray communities better and better!
; c8 M8 Q: I2 [1 A看完了帖没事做我还是淘帖吧!
7 d; }& o/ [* g" p6 Kbluraycd forum, a lot of Blu-ray movies!1 u2 c. U/ L! D6 p" d( p+ c8 W) z" k

31

主题

4115

回帖

2万

积分

Sponsor

金币
3088 枚
体力
9924 点
QQ
shiji1973 发表于 2023-10-20 11:24:31 | 显示全部楼层
姐顶的不是帖子,是寂寞!
! s( V1 h& k- H/ b9 _要想蓝光电影论坛发展好,资源多,就靠你我他!To the development of Blu-ray movies forum, resources and more depend on you and me!* c4 \; T; x8 }6 s* A+ N7 W8 f+ N* V

0

主题

2440

回帖

8571

积分

Sponsor

金币
189 枚
体力
3739 点
QQ
fangfang789 发表于 2023-10-7 11:20:27 | 显示全部楼层
沙发是抢的而不是占的!
$ Y2 w1 x1 W* Y5 {- mBlu-ray Film Forum is now my home!
0 H% f% u$ [" @9 K

0

主题

223

回帖

1631

积分

Sponsor

金币
230 枚
体力
961 点
aacq 发表于 2023-10-7 12:16:31 | 显示全部楼层
谢谢楼主分享精彩电影

0

主题

50

回帖

1988

积分

知名人士

金币
1 枚
体力
1352 点
seamal 发表于 2023-10-7 16:10:02 | 显示全部楼层
Transformers 7! Super Cool Post

4

主题

418

回帖

4025

积分

Sponsor

金币
17 枚
体力
3207 点
ALLisxxx 发表于 2023-10-7 22:30:32 | 显示全部楼层
楼主发贴辛苦了,I*老*虎*U!) ~$ J! d7 e8 k' H. m2 y
Thank you for sharing such a good resource polite reply, very sorry for myself!
  a: a# w, I8 H! V
蓝光论坛里 ...

0

主题

2440

回帖

8571

积分

Sponsor

金币
189 枚
体力
3739 点
QQ
fangfang789 发表于 2023-10-10 15:44:43 | 显示全部楼层
每天都来蓝光论坛看看,我爱蓝光电影。
0 O' z) o3 Z1 i$ Q4 gbluraycd forum, a lot of Blu-ray movies!
) u$ ?2 N; K. ~- j4 e$ W

0

主题

71

回帖

730

积分

Sponsor

金币
40 枚
体力
529 点
wuziwen 发表于 2023-10-11 23:39:56 | 显示全部楼层
每天都来蓝光论坛看看,我爱蓝光电影。
, r* H8 n  e: XBlu-ray movies Community: my favorite!1 L( d5 R7 z& T. {) b: l

31

主题

4115

回帖

2万

积分

Sponsor

金币
3088 枚
体力
9924 点
QQ
shiji1973 发表于 2023-10-12 09:00:41 | 显示全部楼层
楼主发贴辛苦了,I*老*虎*U!, w& @7 W# u9 I
至少是现在,我一天没有访问蓝光电影论坛就不爽!At least now, my day did not visit the Blu-ray Film Forum on unhappy!
, o0 m& x" D# E5 S5 P

0

主题

829

回帖

3984

积分

Sponsor

金币
604 枚
体力
1690 点
sawas 发表于 2023-10-12 22:01:06 | 显示全部楼层
That was awesome!

本版积分规则

小黑屋|手机版|Archiver|4K蓝光论坛

GMT+8, 2024-4-24 05:43

Copyright © 2001-2021, Gadaddy Cloud.

快速回复 返回顶部 返回列表