BluRayCD Forum

 找回密码
 立即注册【分享大片】
查看: 73|回复: 0
收起左侧

[科幻恐怖] 变形金刚7:超能勇士崛起/变形金刚:万兽崛起 Transformers Rise of the Beasts 2023 1080p BluRaycd x264-HiDt EniaHD 14.59GB

[复制链接]

1万

主题

387

回帖

13万

积分

Post Share

金币
4189 枚
体力
32754 点

卓越贡献勋章VIP蓝光勋章诚信会员勋章

mvods 发表于 2023-10-24 12:08:32 | 显示全部楼层 |阅读模式
- T! x4 a' _( ~7 W9 y4 f

% z! @6 n# ~7 k: U8 V8 B◎译  名 变形金刚7:超能勇士崛起/变形金刚:万兽崛起(台)/变形金刚:狂兽崛起(港)1 ?9 y' W9 }6 m- }4 c; N
◎片  名 Transformers: Rise of the Beasts
3 @1 S8 I7 B- l2 Q4 y3 e9 B◎年  代 2023
( V( s2 j0 R: J1 N8 \8 t4 a◎产  地 美国
0 D/ y$ {5 k4 U+ p( ?◎类  别 动作/冒险/科幻
8 y2 Z0 ]+ R2 c◎语  言 英语) t: g3 h5 K) l: ~( ~
◎上映日期 2023-06-09(美国/中国大陆)/2023-06-06(韩国)
0 [6 {4 i4 P. e5 Z% I* s& S; f◎IMDb评分  6.1/10 from 85,168 users
! X5 h# {+ x4 v5 b/ D* d◎IMDb链接  https://www.imdb.com/title/tt5090568/
+ E/ z* t/ v. F: V% ^1 U/ I! L& P6 Z2 @◎豆瓣评分 5.8/10 from 157,377 users' ^' e- l% I' V. m  l" E
◎豆瓣链接 https://movie.douban.com/subject/26634250/
8 V0 f4 O' J9 E& L1 \6 }1 c+ C. i◎片  长 2 h 7 min
5 }6 N2 [+ P' H8 _8 {0 G/ e◎导  演 小斯蒂芬·卡普尔 Steven Caple Jr.
# f3 d5 C" v6 i( Z◎编  剧 卓比·哈罗德 Joby Harold" }3 U2 Y+ f4 P) v; [, |3 u% m
       达内尔·梅耶尔 Darnell Metayer, w3 h; X% w3 I+ c4 z1 {
       乔什·皮特斯 Josh Peters
! M. \2 B( X7 Y) v       埃里希·霍贝尔 Erich Hoeber0 Q- s2 W, o9 P7 C2 E, j- s6 B$ Y+ A
       乔·霍贝尔 Jon Hoeber$ z8 `/ c% [, g4 _
◎演  员 安东尼·拉莫斯 Anthony Ramos
5 F" {* u0 C# A- c% E       多米尼克·菲什巴克 Dominique Fishback
6 H, Q  F0 H, m: f       彼特·库伦 Peter Cullen# q5 Z1 r3 E/ y5 V) @
       朗·普尔曼 Ron Perlman6 S% @3 j; P% ?4 V0 o3 \! |) n
       彼特·丁拉基 Peter Dinklage
4 {0 Y- c' T. V6 Y       杨紫琼 Michelle Yeoh
+ H$ }" B, _  Q9 W7 ?. F: v3 H3 A       皮特·戴维森 Pete Davidson
5 u1 ]( h  |' ]1 k6 B       科尔曼·多明戈 Colman Domingo- ~1 S4 X8 ?- f* Z3 o/ ~
       丽兹·考什 Liza Koshy
8 A5 l+ m$ h0 `0 z& T+ {- B9 {! I       克里斯托·费尔南德斯 Cristo Fernández4 p7 x# j4 n) m+ T9 G+ F. n
       MJ·罗德里格斯 Mj Rodriguez( E, a# E0 i5 i8 n; ]6 h& c
       大卫·索博洛夫 David Sobolov$ i! N# f! [9 x8 u: K
       汤加伊·基里萨 Tongayi Chirisa
0 Q3 s( h4 u" a( k8 H; j       约翰·迪·马吉欧 John Di Maggio
3 i  f. R" g* O# O5 w       迪恩·斯科特·瓦兹奎兹 Dean Scott Vazquez
6 W! D( r" d; X. q       托贝·纽维吉 Tobe Nwigwe
! ?4 \$ {3 l/ e# W9 `% T$ C% y. Z       劳伦·维勒斯 Lauren Vélez4 z7 O% P/ z* W, W6 F% N& `
       莎拉·斯蒂尔斯 Sarah Stiles8 Z. G# }8 ~/ A) c% ]8 f
       多梅尼克·迪罗萨 Domenic Di Rosa: n7 Y" i8 `& c% {/ X" w! k2 L2 `6 ?

( ~# ^2 }: D. B$ }- i# z◎简  介   
5 {8 Q" H4 z* W3 @0 |
5 U+ A9 A8 l$ g9 N( z+ G2 [" {0 l3 v  终极反派宇宙大帝从天而降,驱使以天灾为首的恐惧兽掀起地球危机。绝境之中,蛰伏许久的巨无霸终觉醒,联合汽车人变形出发,一场前所未有的决战即将上演。2 C) H' w# c7 \8 e

2 ~1 I0 W$ n  _  During the '90s, a new faction of Transformers - the Maximals - join the Autobots as allies in the battle for Earth.& ?$ ?( b* {7 K1 n: u
Transformers.Rise.of.the.Beasts.2023.1080p.BluRayCD.x264-HiDt EniaHD 14.59 GB1 e4 {, P: P' G7 w
+ t4 R" O- z9 d4 Q2 V( _
General
: ]2 F2 @& n4 J1 @Unique ID                      : 326806130273604058827437994582426711564 (0xF5DC923C268C5DFFDE69E95E7F62F60C)
. u' x" P" _3 W! k( [3 u: D- F) H% |Complete name                  : Transformers.Rise.of.the.Beasts.2023.1080p.BluRay.x264-HiDt_EniaHD.mkv
" M, I3 K, s( tFormat                         : Matroska8 v  G- B$ [: K4 @; Z/ `  Y8 c
Format version                 : Version 4$ E6 Z5 c+ \# T
File size                      : 14.6 GiB
6 p) g( x6 d* y  T" F8 xDuration                       : 2 h 7 min0 ^0 P! `* X! u: y
Overall bit rate               : 16.4 Mb/s
5 B' \5 B8 N" W3 C( m+ \Frame rate                     : 23.976 FPS
2 }- w* I1 z& S# }  ]" ?$ ~5 M, RMovie name                     : Transformers: Rise of the Beasts (2023) - EniaHD
/ k5 C0 K/ E* r3 P4 r+ oWriting application            : mkvmerge v57.0.0 ('Till The End') 64-bit
4 s2 x: H( D- VWriting library                : libebml v1.4.2 + libmatroska v1.6.4, V) T0 c: g0 r( P6 @
Cover                          : Yes
8 u9 a; L' k6 T8 k0 _& n- YAttachments                    : cover.jpg
1 U. p2 {* A& ~, V. M8 [9 @$ |2 i6 p- p$ r& F0 F! U
Video
& f, f5 q) t' nID                             : 1
; D4 ~- V1 v! A# wFormat                         : AVC8 M, n) o* r, A% q: S
Format/Info                    : Advanced Video Codec
* k' B6 n2 \' p: ?5 ~  s7 d9 g4 lFormat profile                 : High@L4.1
; ^+ X; e! l4 Y& e5 s3 OFormat settings                : CABAC / 4 Ref Frames! N9 z. `% s* B5 t: i/ g
Format settings, CABAC         : Yes6 Q( G% l% G6 v) {) f; n: h
Format settings, Reference fra : 4 frames3 N) v' [: s/ h6 C" b' E
Codec ID                       : V_MPEG4/ISO/AVC
- g; }8 G7 X6 Z- nDuration                       : 2 h 7 min
6 l, K% ~  s, K/ nBit rate                       : 11.2 Mb/s3 F' |3 X" ^) m$ q2 t
Width                          : 1 920 pixels0 g' D# m6 Q( F: D% ^+ c" J
Height                         : 804 pixels
: V, m! W1 }- |0 E1 e9 K' e" x# X8 i8 ?Display aspect ratio           : 2.40:1
# k: ?% D+ Q0 w, O, k( qFrame rate mode                : Constant
3 e- p. r* t! o+ b2 J$ FFrame rate                     : 23.976 (24000/1001) FPS
& D! S9 Z2 l* i8 S' B. c) wColor space                    : YUV
# g: Z6 x% W4 H* T9 U3 y4 SChroma subsampling             : 4:2:0
( M' m/ Z  I( MBit depth                      : 8 bits
9 h  h) w4 q7 @Scan type                      : Progressive
* T4 _% v. X3 x" PBits/(Pixel*Frame)             : 0.304" U& ^( W& a6 U! G4 w
Stream size                    : 9.98 GiB (68%)
5 `6 C* w& K" u6 w( \0 }% sWriting library                : x264 core 164 r3107 a8b68eb/ c* G% I* Z4 O7 G* ^( W$ ~( ?
Encoding settings              : cabac=1 / ref=4 / deblock=1:-3:-3 / analyse=0x3:0x133 / me=tesa / subme=11 / psy=1 / psy_rd=1.05:0.00 / mixed_ref=1 / me_range=48 / chroma_me=1 / trellis=2 / 8x8dct=1 / cqm=0 / deadzone=21,11 / fast_pskip=0 / chroma_qp_offset=-2 / threads=25 / lookahead_threads=6 / sliced_threads=0 / nr=0 / decimate=0 / interlaced=0 / bluray_compat=0 / constrained_intra=0 / bframes=10 / b_pyramid=2 / b_adapt=2 / b_bias=0 / direct=3 / weightb=1 / open_gop=0 / weightp=2 / keyint=240 / keyint_min=22 / scenecut=40 / intra_refresh=0 / rc_lookahead=120 / rc=crf / mbtree=0 / crf=16.1 / qcomp=0.60 / qpmin=0 / qpmax=69 / qpstep=4 / vbv_maxrate=62500 / vbv_bufsize=78125 / crf_max=0.0 / nal_hrd=none / filler=0 / ip_ratio=1.27 / pb_ratio=1.20 / aq=2:0.50 / zones=169100,182657,crf=23
3 P, D' _9 }, W! j; pDefault                        : Yes# O7 a4 V7 x$ ~4 T% Q, C
Forced                         : No
/ x6 ?) s. `4 y( C: G' U! C
) x# ^" @, R& {9 VAudio #16 N5 T8 }' M2 D  ^5 f) A
ID                             : 2. h1 Z4 w6 M! r2 c6 K3 e
Format                         : AC-3+ [) o  m' \- E. s
Format/Info                    : Audio Coding 3
" N- O# [8 r$ S" l( E, eCommercial name                : Dolby Digital$ u" ^% \/ u5 @0 P# d
Codec ID                       : A_AC3
3 P$ s# K8 Q( g' cDuration                       : 2 h 7 min
' N7 u% f) Y8 \' ^6 b& k% gBit rate mode                  : Constant
9 r4 W5 e) V7 ?! Y+ ]6 _/ v5 R, ]Bit rate                       : 384 kb/s+ j( |5 e4 R4 ?3 M
Channel(s)                     : 6 channels  \% w5 e: ?# ^% t4 V" V
Channel layout                 : L R C LFE Ls Rs) @, X, G& u! M( Q+ n
Sampling rate                  : 48.0 kHz9 `7 [7 d8 D# J1 W0 Z* B- J% u
Frame rate                     : 31.250 FPS (1536 SPF)5 \) M  o) W+ F2 K
Compression mode               : Lossy% p6 T2 \0 b2 z
Stream size                    : 349 MiB (2%)  b+ q0 I+ n! v  ]& i
Title                          : Videofilm Ltd. (iTunes)
+ _2 N7 A3 b9 l. ?) \# Y' ZLanguage                       : Russian. r! n$ `7 Q6 R3 E
Service kind                   : Complete Main, y: d* F/ G6 u  X8 }$ a, w
Default                        : Yes
5 ^5 t- w* j( _) K0 ^Forced                         : No
9 l4 W! R6 W+ ^9 _0 l' G
) U) b$ v% p6 ?7 OAudio #2* {4 k. h, e  h- k& D
ID                             : 3. D3 c4 R/ S  E# z
Format                         : AC-3
8 P, S) {5 s: ZFormat/Info                    : Audio Coding 3( ~4 K: e* K- U" _) i# ~; V
Commercial name                : Dolby Digital% k" {% `% s5 d5 l
Codec ID                       : A_AC3' ?/ b/ _; z3 i
Duration                       : 2 h 7 min; I6 G9 n  w3 L9 {4 P. R6 r4 x
Bit rate mode                  : Constant
( n7 X! F& j# t/ |7 dBit rate                       : 640 kb/s
+ Y$ A9 N$ x- ~: P( u' ]Channel(s)                     : 6 channels
2 w) j8 g) i  v4 V( h0 |Channel layout                 : L R C LFE Ls Rs! B6 R8 r, X* X" W& K
Sampling rate                  : 48.0 kHz/ i% N  M4 H. O  c& L$ H) A
Frame rate                     : 31.250 FPS (1536 SPF)
% ]: z) }2 k. X+ f; ]Compression mode               : Lossy
+ }7 D1 b0 O) u. A0 u/ E8 C7 G9 DStream size                    : 583 MiB (4%)' Z6 O0 s( h5 e4 ?6 ?6 u$ f9 ^
Title                          : Flarrow Films3 E' q$ p* ?# [) M9 }$ n% i
Language                       : Russian4 F( O' x: h  r2 H3 n
Service kind                   : Complete Main# u  y% U& g; b9 w7 G7 b0 [9 k% |
Default                        : No
, \/ B2 Q  v2 g3 gForced                         : No3 U  K* K# }1 g% U8 m. T; z" j$ u

# R- n% t# }# c3 xAudio #3/ v5 K+ A5 H! n
ID                             : 4
: A! I6 i/ t. \& A3 U- t, [  \Format                         : AC-3
9 E" e. Y! n% WFormat/Info                    : Audio Coding 3
4 J; \2 o7 G# W7 W1 CCommercial name                : Dolby Digital# Z- o1 P4 q$ T' O, e
Codec ID                       : A_AC3; E6 ]) M8 g* r  {. X4 p
Duration                       : 2 h 7 min- j3 N, w  }) ]' R
Bit rate mode                  : Constant
7 p' N. C  O  DBit rate                       : 448 kb/s( j0 J% [. v& `  n7 z: H6 q
Channel(s)                     : 6 channels
: G) j( E5 z8 h7 jChannel layout                 : L R C LFE Ls Rs
" }% k7 M5 P- t+ [5 U( _Sampling rate                  : 48.0 kHz# ~* k5 Z- N) L! b2 _
Frame rate                     : 31.250 FPS (1536 SPF)8 ]2 ]7 c, y" s. k
Compression mode               : Lossy, Z8 z3 r+ F: ?, b, h
Stream size                    : 407 MiB (3%)
& C/ X7 d8 N1 G! q" FTitle                          : Red Head Sound; b; L& B4 O" S4 V; l" d
Language                       : Russian
+ j9 b+ e. F$ J+ CService kind                   : Complete Main% r4 C* v: T- E. b6 }0 H0 c* [
Default                        : No$ d" K- l" J0 Z
Forced                         : No5 Q0 f' i6 d# R+ o0 p% Q, f+ R
& w  s6 s* [( p- h% R% [; T# K
Audio #4% ~' U( _" G6 P# T% q
ID                             : 54 R& L, V( u8 r3 P3 ^; D  x
Format                         : AC-3
; e' b& x# r& C* z6 fFormat/Info                    : Audio Coding 3
5 x* I+ N7 U0 t- H6 G9 [6 C+ a: ]Commercial name                : Dolby Digital9 i5 n  R6 A  r" [
Codec ID                       : A_AC3# S1 z5 X: |1 z( L
Duration                       : 2 h 7 min% W# w  S' l! H' j6 |" \% y
Bit rate mode                  : Constant3 n6 V% |: _1 {+ Z8 R
Bit rate                       : 448 kb/s0 ^' \6 F% F0 f' R2 D. t/ `* A( Z
Channel(s)                     : 6 channels
( ?: D- `! f/ c8 E1 mChannel layout                 : L R C LFE Ls Rs/ s2 f0 P9 x, r
Sampling rate                  : 48.0 kHz8 g2 C, w3 L% ~8 |
Frame rate                     : 31.250 FPS (1536 SPF)
5 Z& X8 {1 R2 e' hCompression mode               : Lossy; |% G# y- g) ~' L( j
Stream size                    : 407 MiB (3%)  W( V: X$ q, t) y* |) i$ l
Title                          : HDrezka Studio
3 x+ ]/ I5 Q  `4 Z5 |Language                       : Russian
1 C9 B6 H. O. dService kind                   : Complete Main
& F9 D$ l8 N' t* |: T8 CDefault                        : No
$ A1 B1 m# u1 e- g7 z  w' z4 nForced                         : No
) u' Z+ [' V" {' W' n+ b& }# m8 D
# Y% w. F% f7 J# H" TAudio #5
6 A' d# G, c' x2 i% i# c1 yID                             : 6
4 D, Y- M6 k* \2 VFormat                         : AC-3
- ~0 P& C$ O" c5 ^2 [4 AFormat/Info                    : Audio Coding 3) i; u0 h+ }) `# M; J0 v
Commercial name                : Dolby Digital
! I! O1 O: t* ~Codec ID                       : A_AC3
% @6 [) ?0 L; l  y3 bDuration                       : 2 h 7 min
  W6 j5 R) o/ T  [3 v4 J. vBit rate mode                  : Constant
+ A) b9 E1 \: I# c& U; Z( eBit rate                       : 384 kb/s
/ q+ Q: h* ?* C2 b% W& ]- gChannel(s)                     : 6 channels
& ?: g' t' \4 cChannel layout                 : L R C LFE Ls Rs2 n" p4 \) J$ V+ {% P" a2 x2 x
Sampling rate                  : 48.0 kHz
, }$ u4 T$ d4 [+ kFrame rate                     : 31.250 FPS (1536 SPF), W3 a- s/ |1 I, u7 d) y
Compression mode               : Lossy
2 c' X& g, d7 XStream size                    : 349 MiB (2%)
- K7 H! }! Q6 e6 `7 J6 r2 YTitle                          : Jaskier
5 Q- {% C: e  oLanguage                       : Russian$ Y2 B$ O; I! N0 G
Service kind                   : Complete Main: L) c9 D2 f! m( C4 T# I2 a0 g
Default                        : No5 \1 O/ i6 N; W" I4 I
Forced                         : No
3 p8 @* M3 a) I3 S3 @
2 x2 B5 Y3 u) @0 E5 f( FAudio #6
9 ?6 |" k+ u) r/ M- J8 p+ n% {ID                             : 7' s" c* Z0 f- H( b* A7 }
Format                         : AC-3
2 N9 |' j' {1 Q- V& h8 oFormat/Info                    : Audio Coding 39 [: p% u6 h% e- X( I) R$ V! E
Commercial name                : Dolby Digital
4 w$ I: N$ ~7 P$ D7 [Codec ID                       : A_AC3
) W9 ?0 I4 M4 }: q' E' W1 C. LDuration                       : 2 h 7 min
. P2 J& Z! _7 n7 T. n* ~Bit rate mode                  : Constant
0 b  D; x9 N% G3 M& D( u. b/ {; B9 T/ PBit rate                       : 384 kb/s
5 N) D; w! T( \4 B* LChannel(s)                     : 6 channels; Q8 P; \# t) i7 h
Channel layout                 : L R C LFE Ls Rs+ |. Y% Y/ `, ~' a3 t, v! Z3 f
Sampling rate                  : 48.0 kHz" j* `! r7 c% B& T* @
Frame rate                     : 31.250 FPS (1536 SPF)
9 P4 s4 z2 P- ICompression mode               : Lossy0 V& N  p+ R1 z. [8 c5 ^
Stream size                    : 349 MiB (2%)
5 Z- t# Z% y$ s; N+ A6 _; }$ I; GTitle                          : TVShows
/ F) O6 U: Z; M0 P2 I2 MLanguage                       : Russian/ Q! z8 g# }0 G& u, a
Service kind                   : Complete Main& y6 y8 Z0 I! E8 T" r
Default                        : No
7 y- Z/ b* P# P, K2 K) K, dForced                         : No
' i( v% [" _3 R# a  w, \* k4 K" S' }# l0 w
Audio #73 X2 Q' D8 c- h
ID                             : 85 l4 y( |. X# H. X( B4 ^- V( G" Y
Format                         : AC-3) j& H- t3 b8 G! b# U
Format/Info                    : Audio Coding 3% r! b3 ~4 v4 K
Commercial name                : Dolby Digital9 {' Y. S+ Q* e4 ?$ O5 _% X
Codec ID                       : A_AC3
: P- ]6 k! V2 P/ x% W% wDuration                       : 2 h 7 min
& P3 V* }$ E& ~8 K0 HBit rate mode                  : Constant
; F+ Y! ?' t0 mBit rate                       : 384 kb/s+ Y/ _7 e0 L, l# |8 Y" f
Channel(s)                     : 2 channels( [# T5 R5 s4 {$ B: p; F! l3 `3 y
Channel layout                 : L R
! E5 V, ?' D6 e* Z/ B3 b+ bSampling rate                  : 48.0 kHz
/ x. z( R; Q7 IFrame rate                     : 31.250 FPS (1536 SPF)
* |6 y# h# Z2 g, }Compression mode               : Lossy
2 F( V* u5 k, y# g  a! G3 R+ iStream size                    : 350 MiB (2%)& x$ j' F0 T1 C' i$ p8 l' e
Title                          : LostFilm& c7 t" W+ f5 o8 O  T# D% H
Language                       : Russian# u0 O2 D8 H6 Y: g5 R7 V0 r& E( C  a
Service kind                   : Complete Main0 M8 R% n+ t/ {$ z  l
Default                        : No
) W' y1 i% L) h% d; tForced                         : No3 q; ]' T$ l! X. X
, Y% T+ `) G: k+ m, B/ D
Audio #8: {# Z- x$ X- ?  O8 m8 a
ID                             : 9
. W; ]8 x2 y' z8 y. c* ]Format                         : E-AC-3
& y# b6 G' M& P# }- p9 u* p3 D) eFormat/Info                    : Enhanced AC-3
9 Y2 K' F' W3 G  F3 X$ r- Z  a: PCommercial name                : Dolby Digital Plus
# Z+ t: [$ `; h/ ^/ fCodec ID                       : A_EAC3
+ u- _/ v$ H2 A5 I) ~Duration                       : 2 h 7 min2 v7 L1 H( E- }& {( f! _! A
Bit rate mode                  : Constant" \& @' l2 m  F; J+ e% U9 E9 U; X
Bit rate                       : 576 kb/s
$ v' F. j7 B  k% P$ V. D- FChannel(s)                     : 6 channels" y& e7 x" V% [! \- V
Channel layout                 : L R C LFE Ls Rs
6 \. p5 u; g7 ^% t, Q( `: b7 QSampling rate                  : 48.0 kHz
6 f, Y7 P+ A, e8 d3 r$ JFrame rate                     : 31.250 FPS (1536 SPF)
2 V6 p+ E( w, X, A" V. CCompression mode               : Lossy. d, _$ Y( |8 D0 i5 c# ^
Stream size                    : 524 MiB (4%)
7 _) i1 _$ ~8 D- V! w2 e1 MTitle                          : Ukrainian$ ~) |; H1 q+ k. A$ w2 I
Language                       : Ukrainian" p: a% F7 U  w( v! C
Service kind                   : Complete Main
* O* R/ i; H+ G+ N4 D1 dDefault                        : No. `$ Z4 t# z$ d5 T% L$ I# ^
Forced                         : No$ f) a! c& Y+ W7 a
: _' @7 v6 ]6 Y; k- {( l& z
Audio #9/ Y8 N* Q2 U6 @6 j/ S7 R
ID                             : 10. H2 C& ?% I2 N' j: S, y, C
Format                         : E-AC-3
/ F" n) j6 l) A5 v5 h; ~5 Z6 w0 wFormat/Info                    : Enhanced AC-3
) \; E- }5 ^$ ~, ?, ?: T+ hCommercial name                : Dolby Digital Plus) O' _; u% i, c2 s- A' c
Format profile                 : Blu-ray Disc: q+ q9 r! S4 Z% V; o7 ~
Format settings                : Dolby Surround EX
$ {2 k; P( Q3 _( ]1 MCodec ID                       : A_EAC3" ^4 @# w$ y! g9 Y5 w; p( G
Duration                       : 2 h 7 min( r: {6 P0 G( O. H; C
Bit rate mode                  : Constant
5 X3 `7 \: _9 nBit rate                       : 1 536 kb/s
5 \. Y4 Q1 F1 s% i! k% FChannel(s)                     : 8 channels
" Z* H- o- _) x' `$ UChannel layout                 : L R C LFE Ls Rs Lb Rb- K; `. S2 \1 d( i. Y
Sampling rate                  : 48.0 kHz
5 t: K4 b) a, r% gFrame rate                     : 31.250 FPS (1536 SPF)! i8 \' }! t! D
Compression mode               : Lossy9 i  S  p2 [5 o
Stream size                    : 1.36 GiB (9%): z: o6 Z8 `- E1 o; A
Title                          : English8 g. x5 x6 |5 b. W+ d: W
Language                       : English( C1 k  g) O) }8 T: \6 g3 A1 B
Service kind                   : Complete Main* M  w$ G! U) M2 |# E  \6 y
Default                        : No$ d2 W$ Y# b9 }, B, O' w+ Y- @. D
Forced                         : No2 \: D; V& @+ f% h3 G, d

- r2 {- m% j/ u1 o* T/ VText #1* e, `4 S! N, p' M5 s
ID                             : 11# N! v1 X& Q: p0 p' v( a+ T
Format                         : UTF-8
2 V8 f" H5 J- uCodec ID                       : S_TEXT/UTF8
1 a8 o6 a& q4 ~8 N' P* y' KCodec ID/Info                  : UTF-8 Plain Text
/ _; l- G6 N3 s+ VDuration                       : 2 h 0 min
7 d4 [, j" U1 V! P- ~2 V1 kBit rate                       : 0 b/s3 c' D: h! t! Z1 ?
Frame rate                     : 0.002 FPS) g7 G4 z6 W% U0 L+ M0 `& Z3 b# Z5 O
Count of elements              : 13" ?) y. o/ n* A
Stream size                    : 769 Bytes (0%); O, S) y7 `8 X, R# s0 ^: L
Title                          : Russian (Forced)' \! `  t7 \) ~* M: W* u+ I
Language                       : Russian
! Y6 U( D& \7 ]# Z& s) E' D0 oDefault                        : Yes
: P9 K3 K. x6 r: G( \Forced                         : No
! X* ]7 g1 u, U% \: b
+ B4 g( x$ |  x+ S. u2 l4 b. z2 iText #2( X3 S2 g- u5 y/ R
ID                             : 12
) `: t$ ~+ K9 I2 F& yFormat                         : UTF-86 a: k2 G/ ]" X9 B, B! ?0 h
Codec ID                       : S_TEXT/UTF8" u( J8 |/ o! q' h
Codec ID/Info                  : UTF-8 Plain Text& O$ @5 N0 Z  C3 |& I2 f
Duration                       : 2 h 6 min
2 e/ b0 }# S8 c1 N* l% I' e  Q; U; r9 DBit rate                       : 68 b/s9 ~; v' H4 U9 j6 R5 C6 X6 o0 U
Frame rate                     : 0.180 FPS, S9 M8 O  Z3 {; s3 g9 V' Q: v3 }
Count of elements              : 13646 a. |  B' c5 H9 n2 b
Stream size                    : 63.3 KiB (0%)* c0 {# Z) h; v" b1 Q" q/ O9 E
Title                          : Russian (iTunes)
; R% s; B. B8 s/ u5 MLanguage                       : Russian
7 Q- y, [) i/ g. {1 KDefault                        : No% p" V- y7 [, v7 j& t8 C4 ?
Forced                         : No7 N- L5 i8 m+ o  x  R; W

4 V7 s3 T5 \3 ?- r% r% L7 wText #33 {9 |6 ]6 j9 Q3 G; f7 t! G' F& m
ID                             : 13
' D( i7 \  v$ T/ k2 q; @3 DFormat                         : UTF-8. v& t5 ?% z; Z6 J" J5 R/ P+ n0 }
Codec ID                       : S_TEXT/UTF8
8 S' r: R6 a0 O8 S, lCodec ID/Info                  : UTF-8 Plain Text. d- `* Q3 n% A3 q( Q& c
Duration                       : 1 h 55 min  ?5 p$ \& Q4 b% b2 j
Bit rate                       : 78 b/s
6 ]* [6 ?: x. I. F4 \1 NFrame rate                     : 0.198 FPS' o3 Y8 d. f. K( \, m, b
Count of elements              : 1375
1 c1 A& j8 A/ N0 bStream size                    : 66.6 KiB (0%)2 X' v2 z% f/ Z1 X. n2 \- M1 {9 H) Q
Title                          : Russian (FOCS), S4 u4 S% K* j4 U0 D3 V
Language                       : Russian6 n7 @4 w! x5 p8 B8 J. ]! L" z% I0 z9 n
Default                        : No+ ]: T; N. ?# _3 Q' c* W
Forced                         : No" Q8 J# B- U2 }: @: G2 r
, k; |$ A. G9 z" d* p4 P
Text #46 t( b+ h) R+ ]
ID                             : 14
) g: q, `  ~) n% r* ?Format                         : UTF-8; _  C. c7 z  I. Z2 _
Codec ID                       : S_TEXT/UTF84 x. z7 L, ?6 e/ P! Q* r' }
Codec ID/Info                  : UTF-8 Plain Text4 r7 E. p# r7 E# C/ R* r9 t# j
Duration                       : 1 h 55 min
! v9 \$ d: F# a$ J8 D& o: oBit rate                       : 47 b/s" m7 ]2 x; B9 q% }9 |. ~
Frame rate                     : 0.196 FPS
1 {$ m+ H4 o3 z; C9 F4 DCount of elements              : 1357' [# s% L! Q- o  O
Stream size                    : 40.5 KiB (0%)1 n4 e0 x' z6 `% n
Title                          : English1 g0 U# S, z7 k$ r$ R& U
Language                       : English- y8 Z' n) |5 J2 Q+ c+ q
Default                        : No0 ?# \) B' g  }' E) W( q; u( `
Forced                         : No
7 n1 w# @) |! ?
. Z; S4 d4 d# ~! YText #5
' Q7 J8 V9 J3 `. Q% K1 }; I+ lID                             : 15
0 f  {$ r; i# Z6 [0 H- SFormat                         : UTF-8
# F. D' v2 S1 U: O6 eCodec ID                       : S_TEXT/UTF8
2 V% V" ~3 G  j' X+ DCodec ID/Info                  : UTF-8 Plain Text
9 R$ c/ l$ ~/ [Duration                       : 1 h 56 min
7 A$ c2 ]; J5 t' [0 RBit rate                       : 67 b/s
7 }0 w" g+ \& v" B/ sFrame rate                     : 0.285 FPS" Y% u/ C2 k! C& H
Count of elements              : 1993
' Z+ k: z$ Q  R6 `+ FStream size                    : 57.7 KiB (0%)( |* I# {5 x: i
Title                          : English (SDH)0 I& W' P6 F! ?' g6 ~2 Y
Language                       : English
' t9 n1 E7 L6 R2 k" Z7 A  H7 jDefault                        : No
  Y) A6 [8 w. v* i7 ^2 `. jForced                         : No' @+ @+ e( }7 `1 g$ n0 S+ f2 l

! C9 b% h5 Z+ GText #67 Y  a: s- s5 x1 q& @2 Y
ID                             : 16( x6 K' ~; {; _! H7 ]
Format                         : UTF-8" x6 V( i" M. v0 r+ X
Codec ID                       : S_TEXT/UTF8
2 F2 |, M" K% i" x& K: A7 iCodec ID/Info                  : UTF-8 Plain Text
3 V9 q) m, E+ b; H# mDuration                       : 2 h 6 min2 x- Z: J, `; r2 e. q  U0 s9 K* C7 L
Bit rate                       : 57 b/s
3 ^0 h6 j% {  b9 ^Frame rate                     : 0.181 FPS! I3 O2 U2 d0 ]/ c# W
Count of elements              : 13657 g% b* \% L6 l
Stream size                    : 52.7 KiB (0%)  w3 h. d/ X8 K  l& y
Title                          : Hebrew
; l  z: A$ m, E, a+ MLanguage                       : Hebrew
6 ]0 N( P. m( o5 T/ b" b( E6 VDefault                        : No7 n2 `$ @: o: n3 p1 b+ L5 s+ ^
Forced                         : No8 r/ k! r# A$ [* f4 G: F  C0 E/ B  K

) E0 F( N4 s0 u; R! a; z2 p# DText #7( c  {, T: H- S2 b/ [& v  D; L3 N
ID                             : 17& K6 V$ x+ K! a& E4 n2 g
Format                         : UTF-8- T7 M0 o+ ^* d& H
Codec ID                       : S_TEXT/UTF8
+ ^8 P8 N$ I5 j- G1 s; ]" X- FCodec ID/Info                  : UTF-8 Plain Text9 O! V; l9 g; j3 F+ U; ~
Duration                       : 2 h 6 min
% b6 J7 Y7 p/ }& Q, E% [8 |Bit rate                       : 39 b/s
0 ~. ~6 h+ o. M  b  C- P" @4 bFrame rate                     : 0.155 FPS
6 S2 F( T1 M: a3 r6 ?Count of elements              : 1170
9 s2 h5 w% q8 U4 [9 H) eStream size                    : 36.8 KiB (0%)% ]7 O1 H/ {) j. {5 ~8 @' J7 S
Title                          : Romanian
  v% B% c4 z& [+ ]Language                       : Romanian
3 F0 G1 K1 f' R6 Z# e. EDefault                        : No
0 T# K) j% z! Y" GForced                         : No
: Y; C5 Q7 X. m: d
1 ?" t7 [& t7 I; v8 h) f& f5 XText #8
1 G; y- x% h: y$ {ID                             : 18- W; g; K, D9 Z
Format                         : UTF-8
" a3 x9 n0 R1 b7 {! ^0 jCodec ID                       : S_TEXT/UTF8
( M. L6 y) ^7 W% C) \. ?Codec ID/Info                  : UTF-8 Plain Text! O$ v5 h" O, z
Duration                       : 2 h 6 min1 `9 Z/ A9 L1 A: Z0 {5 l
Bit rate                       : 65 b/s3 c) h1 S; B: P5 J
Frame rate                     : 0.180 FPS# h5 E$ a$ y+ z7 i  ^
Count of elements              : 1359; q1 v" u; h; [" V. G3 ]+ ]
Stream size                    : 60.5 KiB (0%)# g5 S. n, _  h/ S
Title                          : Ukrainian$ P7 Q3 g5 S2 N
Language                       : Ukrainian# m# T- F6 ], h+ ~4 {: q. M
Default                        : No
  }* J9 O% z9 v2 {0 {* hForced                         : No3 @1 ]; L1 E: ]$ e
9 b* c+ T9 O; U/ E3 X6 R
Text #9
$ t3 Y  x& e5 z6 q  ZID                             : 19
0 R$ y7 u% Z8 [/ u  fFormat                         : UTF-8  S( V: T9 L2 s/ e3 \' f- e+ j
Codec ID                       : S_TEXT/UTF8
/ @7 d" B: J  q! ICodec ID/Info                  : UTF-8 Plain Text
- D/ Q4 L; Q% q/ G& |5 a6 LDuration                       : 1 h 33 min
% g4 O4 |( W( h" o& \1 P1 |Bit rate                       : 0 b/s
4 `6 h' h( U2 r0 q) ZFrame rate                     : 0.001 FPS8 f7 w4 N0 Q0 `5 Y
Count of elements              : 8
. W) j/ ?5 L0 Y% }- [! V, \, qStream size                    : 440 Bytes (0%)
3 k2 S/ F2 _; o4 e# x' mTitle                          : Ukrainian (Forced)3 M6 F& a6 `2 l$ ^3 y3 x; G$ E" |
Language                       : Ukrainian
2 y! b7 N) V* u3 sDefault                        : No9 R& g) ^$ M# Z+ V+ W
Forced                         : No
4 H' S1 g9 \, }" v; b; G& G, i$ Q
Menu/ o. r- i1 L* X
00:00:00.000                   : en:Studio Logo
# `( W, l0 R" u, @. V" }5 Y0 f00:00:50.000                   : en:Scene 2
7 ]7 |: x  x  R; [00:06:11.000                   : en:Title Sequence4 S, G4 V. f& n# h) K) g- g
00:06:19.000                   : en:Scene 4
' w- D; L; O1 K+ q5 ~# L+ a00:09:06.000                   : en:Scene 5" O, Y  C- g4 `( O" p5 c
00:15:54.000                   : en:Scene 6
8 [+ d9 }) k& ]) |, c3 M00:23:23.000                   : en:Scene 7
2 A% O8 C; w6 S9 S. u# i00:29:31.000                   : en:Scene 8
1 N% x% j8 D; [# `00:36:21.000                   : en:Scene 9
: x- [: F& z( `! Q) |* `( z00:44:26.000                   : en:Scene 103 F# G  d- z2 w9 B. B
00:52:31.000                   : en:Scene 11
5 r- D3 P, q7 R01:00:00.000                   : en:Scene 12
; c5 p5 P! |! h01:07:51.000                   : en:Scene 134 P5 R+ l( G3 e) p0 m2 V
01:14:57.000                   : en:Scene 14
  d+ d( m5 K7 o01:22:31.000                   : en:Scene 15
5 L6 D# E# |5 g( b) a01:29:08.000                   : en:Scene 166 u6 `  k4 C- f! P* f" B5 Z3 ~/ D
01:33:54.000                   : en:Scene 17
% J- Z  h. }) f- c/ H" l; Y( h4 P01:38:35.000                   : en:Scene 189 Y0 E* ^( A4 b' F6 Y
01:45:40.000                   : en:Scene 192 m2 ~1 M' M" O8 q
01:50:07.000                   : en:Scene 20; g; \( y$ l+ b; t: v4 w, p
01:54:21.000                   : en:End Credits
6 B* y2 B& W% Y- f+ O' h
游客,查看本帖隐藏内容请回复 | 加入VIP可免积分免回复 了解详情 | 还不是会员:点击获取邀请码 Invitation Code

本版积分规则

小黑屋|手机版|Archiver|4K蓝光论坛

GMT+8, 2024-4-24 05:03

Copyright © 2001-2021, Gadaddy Cloud.

快速回复 返回顶部 返回列表