BluRayCD Forum

 找回密码
 立即注册【分享大片】
查看: 46|回复: 1
收起左侧

[科幻恐怖] 隐形人/隐形客/隐身人 The Invisible Man 2020 1080p BluRaycd x264 DTS-HD MA 7.1 & TrueHD 7.1 Atmos-FGT 13.34GB & 13.10GB

[复制链接]

1万

主题

1万

帖子

12万

积分

Post Share

金币
24000 枚
体力
24786 点

卓越贡献勋章

mvods 发表于 2020-5-18 15:24:50 | 显示全部楼层 |阅读模式
- q1 ?7 C4 F9 m4 `8 v0 ?

/ d: f4 p' M: i& i  M◎译  名 隐形人 隐形客(港)/隐身人
9 C+ y: S) i8 z2 g3 ]# L. f◎片  名 The Invisible Man
& N, x  ~+ g  Y, H) M◎年  代 2020$ y& S, ~" T" r) T
◎产  地 澳大利亚/美国/加拿大/英国
9 D9 Z) Y7 U: m& v5 r◎类  别 科幻/惊悚/恐怖
8 }0 o' ?% J2 s/ k  ]; L◎语  言 英语
  C3 ]1 ~) M; F◎上映日期 2020-02-28(美国)
* v3 y' y9 v4 Z◎IMDb评分 7.1/10 from 94,782 users
( Z2 V* A, m- V' b, [◎IMDb链接 https://www.imdb.com/title/tt1051906/
# K, b. b0 M& N7 Q% k◎豆瓣评分 7.3/10 from 114,302 users2 I$ e/ y+ ]  Q, T
◎豆瓣链接 https://movie.douban.com/subject/2364086/7 a3 o# f" l' V' H
◎片  长 2 h 4 min
+ q5 w9 P  \$ w4 T/ b◎导  演 雷·沃纳尔 Leigh Whannell
" l) Q5 h5 C4 D$ x1 h7 Q$ n% ]◎编  剧 雷·沃纳尔 Leigh Whannell + p4 @$ z6 [) s9 _
      赫伯特·乔治·威尔斯 H.G. Wells
5 ^( h* M( R" S8 P4 t◎主  演 伊丽莎白·莫斯 Elisabeth Moss" ]( X6 O! I7 d6 k
      奥利弗·杰森-科恩 Oliver Jackson-Cohen4 N) f. m; W% U6 L5 R/ o( w4 B
      阿尔迪斯·霍吉 Aldis Hodge- a8 t# r  b  D1 q
      迈克尔·多曼 Michael Dorman
4 i0 K8 B! c- H2 T+ }9 \+ s- p9 G1 D      斯托姆·瑞德 Storm Reid# y8 c7 n# |: [- @
      本尼迪克·哈迪 Benedict Hardie, k  I% Q# x7 V0 W4 T
      哈丽特·戴尔 Harriet Dyer
5 M4 J1 C: C5 X3 W      瑞妮·林 Renee Lim
+ E/ }1 A; b8 ]" Y6 y      布莱恩·米根 Brian Meegan
0 P1 D/ D$ _  d7 ^' ]" K      薇薇安·格里尔 Vivienne Greer
) t1 a9 e6 Y+ R$ }- `+ R      尼古拉斯·霍普 Nicholas Hope
9 a/ ?* m. S4 x  z) S4 Q      克利夫·威廉姆斯 Cleave Williams& k& o  B% X) Z" {& \
      萨姆·史密斯 Sam Smith
/ z- j- W# }: h; v/ t0 k      扎拉·迈克尔斯 Zara Michales  D8 p+ B: d% A3 ~  C: x, E0 z1 C" b
      纳许·埃哲顿 Nash Edgerton3 b! T: b% d# `* ]* d0 r: L5 L/ I0 z
      安东尼·布兰登·黄 Anthony Brandon Wong
' v$ a  V; C7 U      阿玛莉·沃德 Amali Ward2 Z1 L3 x; [7 z: n/ |
      迈克尔·诺特 Michael Knott7 F4 n7 r" O+ O& S# M
2 W: w1 ~# O$ Q/ i8 V1 ~0 Q# d
◎标  签 惊悚 | 悬疑 | 恐怖 | 科幻 | 美国 | 犯罪 | 2020 | 剧情
% g& i: e+ ]- C8 R5 A
' a; i# @/ m" `* Z3 \◎简  介; ?/ u# L9 o0 N6 k

! ]2 _: `. E7 P  西西莉亚(伊丽莎白·莫斯 Elisabeth Moss 饰)再也想不到,曾经将自己迷得神魂颠倒的英俊男人阿德里安(奥利弗·杰森-科恩 Oliver Jackson-Cohen 饰),如今会成为噩梦的始作俑者。在和自己恋爱后没多久,阿德里安便开始对西西莉亚进行精神和肉体上的双重控制,终于,忍无可忍的西西莉亚在一天深夜用安定将阿德里安迷晕,成功的逃出了魔窟。" q( Y2 T/ Y) |" _' Y
: O+ F- o1 m1 @) ]( f
  之后,西西莉亚震惊的收到了阿德里安自杀的消息了,她几乎不敢相信,这个魔头真的从自己的生活中彻彻底底的消失了。西西莉亚的疑虑并不是空穴来风,在她生活的角角落落中,似乎都有一个无形的影子在窥视着她,企图触碰她。
( L) t- D; V+ Y, K4 f* `
+ o" t8 o' ^" @2 w  When Cecilia's abusive ex takes his own life and leaves her his fortune, she suspects his death was a hoax. As a series of coincidences turn lethal, Cecilia works to prove that she is being hunted by someone nobody can see. % @! \4 B3 G6 D* Q9 u
Video/ h6 U4 h/ h# g- B7 q$ }, b  B
ID : 16 _. a; _$ u$ X
Format : AVC
6 G' l* K# o* P+ J7 r+ fFormat/Info : Advanced Video Codec
. @) m' p  V5 `" uFormat profile : High@L4.15 P& R' l8 P+ v# d# b
Format settings : CABAC / 4 Ref Frames7 t2 L; T! l0 N+ J( X
Format settings, CABAC : Yes. c, g! L( @. w2 c; S8 I5 }& z( B
Format settings, Reference frames : 4 frames
/ s, @4 b2 }, e$ p, ?4 |. {Codec ID : V_MPEG4/ISO/AVC/ B1 E* Z' j- M) V. O
Duration : 2 h 4 min
6 z' y6 y0 s7 e' {Bit rate : 11.5 Mb/s
0 j: n6 Z) k  M! r& ^/ ~Width : 1 920 pixels
1 X9 R2 x) G/ i+ C6 e( uHeight : 804 pixels
4 V; Q9 g5 }4 @% e  t/ lDisplay aspect ratio : 2.40:13 J% v" K) }. b0 Z' ~  I( L0 ]
Frame rate mode : Constant
2 o. V% G1 k( r* g/ a8 TFrame rate : 23.976 (24000/1001/189150) FPS3 F% M2 {. f/ i( ]0 v$ z6 s/ Y
Color space : YUV( x2 a2 a1 ]9 I/ B6 t7 R
Chroma subsampling : 4:2:0& A, H1 j1 F7 {- l# r
Bit depth : 8 bits
$ p, [, k! w" I9 z$ r6 d0 r) cScan type : Progressive) _$ O. G5 M$ t( [7 q
Bits/(Pixel*Frame) : 0.3112 [. q- m, k% r1 c: D
Stream size : 9.99 GiB (75%)
5 n4 E& c5 M8 o$ w6 k' c- QTitle : The.Invisible.Man.2020.1080p.BluRayCD.x264.DTS-HD.MA.7.1-FGT
! K" H% Y! u9 U: ?) jWriting library : x264 core 148 r2748 97eaef2: o1 \5 M' P2 F# z
Encoding settings : cabac=1 / ref=4 / deblock=1:-2:-2 / analyse=0x3:0x113 / me=umh / subme=9 / psy=1 / psy_rd=1.00:0.15 / mixed_ref=1 / me_range=16 / chroma_me=1 / trellis=2 / 8x8dct=1 / cqm=0 / deadzone=21,11 / fast_pskip=1 / chroma_qp_offset=-3 / threads=72 / lookahead_threads=3 / sliced_threads=0 / nr=0 / decimate=1 / interlaced=0 / bluray_compat=0 / constrained_intra=0 / bframes=3 / b_pyramid=2 / b_adapt=1 / b_bias=0 / direct=3 / weightb=1 / open_gop=0 / weightp=2 / keyint=250 / keyint_min=25 / scenecut=40 / intra_refresh=0 / rc_lookahead=50 / rc=2pass / mbtree=1 / bitrate=11500 / ratetol=1.0 / qcomp=0.60 / qpmin=0 / qpmax=69 / qpstep=4 / cplxblur=20.0 / qblur=0.5 / vbv_maxrate=31250 / vbv_bufsize=31250 / nal_hrd=none / filler=0 / ip_ratio=1.40 / aq=1:1.00
4 F7 |; M) }" U- R2 ELanguage : English7 k. z0 O6 g4 d9 f) R
Default : Yes  g5 K! m, m$ d
Forced : No
+ p0 n9 B7 A' D2 ?8 L5 F% l2 \) r5 [9 E' g+ Q8 _$ R
Audio
8 }$ F' ^2 |' `# n8 kID : 26 d/ t; j4 \  Z! ^# v- |2 G
Format : DTS XLL
' i: {" o/ w. N8 e" `Format/Info : Digital Theater Systems
7 T/ r' H" v  y8 D/ P5 J5 m; F: lCommercial name : DTS-HD Master Audio3 V) y* f  w6 G4 t7 M
Codec ID : A_DTS3 M7 c( u0 ^: N0 M# q: K6 n
Duration : 2 h 4 min
: l3 H: @. T5 m! L* n8 YBit rate mode : Variable
, Z$ _  y7 K/ i2 J1 M( I) u/ \4 CBit rate : 3 833 kb/s
; E  h% d; `+ E2 M; Y% t9 K" ], GChannel(s) : 8 channels$ D! i& k0 G8 L" k' U. P# K
Channel layout : C L R LFE Lb Rb Lss Rss, Y) Y: R) n9 a4 b% Z
Sampling rate : 48.0 kHz+ Q9 I- }/ d2 @
Frame rate : 93.750 FPS (512 SPF)  M3 S; F) o* U8 G* [
Bit depth : 24 bits
: P0 R. `$ @1 o2 F2 H9 tCompression mode : Lossless
' K0 R: v* v* Y6 v7 iStream size : 3.33 GiB (25%)
# ?8 n4 [5 m- l& Y4 f; L9 cTitle : The.Invisible.Man.2020.1080p.BluRaycd.x264.DTS-HD.MA.7.1-FGT; T. J& U+ G6 M. O& f: g+ U
Language : English) v; l6 R# C+ F5 P
Default : No. X4 A: f, }$ C$ [) m- o
Forced : No6 i/ \/ g2 l- ^0 v! v

. h" d/ ?% h- a/ T- N1 s; wText #1& ]) q+ b6 B8 Q) S* F( a
ID : 3
8 A9 D- E& U$ EFormat : UTF-8) |* X% M2 K3 O2 B
Codec ID : S_TEXT/UTF8. ?& w8 h. s# I( m
Codec ID/Info : UTF-8 Plain Text
4 y9 b* P1 ^% _1 ^, l' A6 @" x( VDuration : 1 h 49 min
# K2 s6 I. \) A+ [4 k, {Bit rate : 31 b/s% s. b# V# n; L
Count of elements : 8632 W5 \" i* H; k! @8 ?' w+ |
Stream size : 25.5 KiB (0%)
  `3 o) n7 J/ d: o4 d7 P1 y4 ?5 NTitle : English-SRT$ v3 E6 B& S$ u/ Y( ~: i( A! Y
Language : English  w$ `0 h! U% g# z4 `
Default : Yes# W0 A2 g& N7 N0 O! t
Forced : No! L8 r2 ]4 v% v, F; F$ t; i

) L9 [+ ^% m- n: d! j: }5 v$ {Text #2* Y8 J2 W" J. M8 @, M
ID : 4
* a& ]' c7 Z; j# p$ r! qFormat : UTF-8
; `6 R. _+ D2 A. lCodec ID : S_TEXT/UTF8! A% t2 [& ^7 @9 R5 e3 _! ~
Codec ID/Info : UTF-8 Plain Text( c8 n7 ^* z& r( f! U
Duration : 1 h 50 min: K9 Q  C0 t! T0 L
Bit rate : 35 b/s+ |; M: b2 f  F5 a* @
Count of elements : 1045
" g2 d4 e5 P" c6 f0 SStream size : 28.9 KiB (0%)
$ `% D* I% C& g, \Title : English-SDH-SRT
% F2 S: s6 j# N) G+ l. a* zLanguage : English
( j; ?% b, u. q; n! E) T( k( G. yDefault : No0 }( i4 ^& S  o; v' ~
Forced : No
. o/ s$ r# U7 H& v
+ f& u0 O* G# C0 D0 q0 T- XText #3
" I, q' d% {9 U! M' m3 wID : 5- X& A% N* {8 }* \
ID in the original source medium : 4608 (0x1200)% D+ o3 J% x) }, R# |- i
Format : PGS: ]; f4 g) L1 l0 U
Muxing mode : zlib
* E/ k& \' Z& c4 [, cCodec ID : S_HDMV/PGS
0 f, U+ t' F, U/ _+ K3 t. e  rCodec ID/Info : Picture based subtitle format used on BDs/HD-DVDs9 |) E  u! F* K" W9 g3 z; N
Duration : 1 h 50 min
' k& \$ k  k* S' vBit rate : 24.9 kb/s
' O3 p4 o8 \- }: O$ Q, H) vCount of elements : 2096/ n1 K; F! g1 @  m, l2 X- B
Stream size : 19.6 MiB (0%): s9 x& @2 t+ u6 X2 l
Title : English-PGS
3 ]9 N# p  e0 ~3 [1 |+ W1 bLanguage : English
% P1 [8 t; t# S! KDefault : No- m$ E  s" q1 N
Forced : No
) d" M! ~5 j# @Original source medium : Blu-ray
! L" \: w$ p5 A: E7 ?, _; O2 C( {6 w& V5 q
Text #4# P) J2 j) ~& G4 l8 k8 L9 B% V
ID : 6
- I; T' E$ k+ ?* y, H. @) |/ pID in the original source medium : 4609 (0x1201)
9 x. Q* e1 u5 qFormat : PGS
+ \2 u( S' l' A; A* `+ w, BMuxing mode : zlib- p) x' a: N5 b/ w! X9 `& D9 Z7 e9 |& g7 g
Codec ID : S_HDMV/PGS4 a  t4 Y; M- _7 F
Codec ID/Info : Picture based subtitle format used on BDs/HD-DVDs
' R- Q7 F) t5 ~% r  l# zDuration : 2 h 3 min
# Y- |9 A5 ^, MBit rate : 17.0 kb/s
8 w. s3 `4 R, R8 S4 }8 G+ K9 W' v% LCount of elements : 1792
/ }6 d7 W/ l/ ?+ c- ^Stream size : 15.0 MiB (0%)# P- Y- m0 q% E. h
Title : Spanish-PGS
8 C$ ]- k$ V6 M- C. F  M/ q9 fLanguage : Spanish
" w4 k( i2 |  M. d4 LDefault : No0 G1 w1 p% V7 F1 S. x, F8 D
Forced : No
* s; F0 u3 {; f( BOriginal source medium : Blu-ray
2 G% r+ V. |/ R' n8 s, d/ r6 ]2 U* b, I' J& k- A, h
Text #5
/ k  I8 s2 K( L+ S9 p& t0 G5 EID : 7' `! P% E/ K% Z' M. [
ID in the original source medium : 4610 (0x1202)4 G9 {2 y+ @7 y! {' {( h
Format : PGS
( L, h" Z/ R3 |$ y& x; T( V9 h1 SMuxing mode : zlib
1 u( O6 G6 R7 Q$ F+ M5 H" QCodec ID : S_HDMV/PGS
6 q0 Y" x5 p; K6 p5 NCodec ID/Info : Picture based subtitle format used on BDs/HD-DVDs
9 x6 P3 p( U( }! I2 O3 O$ _Duration : 2 h 1 min0 I8 ?$ _4 p$ }, p
Bit rate : 19.0 kb/s# z; w3 ]  a8 h
Count of elements : 1752
, m6 x" u4 U% K2 U0 cStream size : 16.5 MiB (0%)
' l0 I$ t# ^! J" |) a& S2 nTitle : French-PGS9 o# Z6 W% u$ G% f2 C  [3 ^: D
Language : French7 }4 L' S( ~  H, j
Default : No
- e3 W% O  v7 b/ O, z( sForced : No
0 m1 o, z: F9 D9 ZOriginal source medium : Blu-ray& t& J7 K3 M+ u  R7 n7 \/ ~
# g- S4 l1 M9 S+ n! R2 |* `/ \
Text #6: i6 A, b0 l; w; f5 [8 G
ID : 8
  m& n, J' k. h! R, ~, PID in the original source medium : 4611 (0x1203)
( r6 F7 ~6 G: D; CFormat : PGS
4 [; h: Z/ B. h8 J6 |# C, @Muxing mode : zlib" \# n; D7 }2 s6 l8 G% J1 l0 ]1 D
Codec ID : S_HDMV/PGS
0 g. s, m, l! N8 o1 [) B; xCodec ID/Info : Picture based subtitle format used on BDs/HD-DVDs
/ N4 s$ j5 }& ]$ B! D: L% r/ \# hDuration : 2 h 3 min% w/ B5 n, y. l# z7 K
Bit rate : 620 b/s/ E* O" Z2 B! q9 X1 t' m
Count of elements : 52
, t* m# x, u. r: |Stream size : 559 KiB (0%)
6 z* L" y4 b0 v4 M8 M$ dTitle : Spanish-FORCED-PGS
( [( Y) t$ ?6 I! {( F% LLanguage : Spanish  e9 I. ]2 i: J8 C
Default : No* [6 y$ A3 X0 F: E+ d9 z
Forced : No$ D1 ?$ X0 m) T% Z. s* v$ `; s9 u
Original source medium : Blu-ray
0 w5 T9 ?5 S9 M1 {& ]7 Y4 H
% I' m3 f, k0 e& wText #7% b5 f; j, ^* \: Y
ID : 90 ?* e  y5 \5 R( H2 p9 v
ID in the original source medium : 4612 (0x1204)7 h) {1 J# a+ D, {: v% E
Format : PGS. t; l, P: I: W& M1 Q7 i& [
Muxing mode : zlib$ r, s* `) \4 l
Codec ID : S_HDMV/PGS. _; X+ `% M) A3 f, }! u) [
Codec ID/Info : Picture based subtitle format used on BDs/HD-DVDs8 _- j! X! D" R. N
Duration : 2 h 1 min
( G8 g! r# @4 B, L* Y4 ~7 \! MBit rate : 671 b/s
+ y% `  E- V1 i4 `9 r: |2 c- DCount of elements : 44
6 t* w4 W6 D9 P1 ^' OStream size : 598 KiB (0%)* Y% o+ e/ }/ Y# v4 r
Title : French-FORCED-PGS. \- a6 X- H5 U4 A9 Q1 u8 U# K
Language : French) L5 {% x8 ?, ^" t; D
Default : No
% y7 T) i& R5 a% i! h7 NForced : No4 R9 c( j; }# C; J1 e& O
Original source medium : Blu-ray
1 N1 X. `" {- L* l& d
( q( l% V4 o5 X% i% R/ a# FMenu' p1 `. u% O' n4 j! r2 O$ Z
00:00:00.000 : en:Chapter 019 A- J0 w2 `& h2 w. r! H0 ~/ S! [
00:11:05.456 : en:Chapter 02
2 H# W5 V7 y. }1 B. J00:16:08.968 : en:Chapter 037 M* A0 K4 ^8 M" g7 K" U6 H
00:19:16.321 : en:Chapter 04
( X/ j! X: V) T" r: U00:25:27.651 : en:Chapter 05* l3 G8 a8 ^4 O' S  |) T3 K
00:35:52.233 : en:Chapter 06
- l" A  S6 g2 p5 b5 U00:39:50.179 : en:Chapter 07: q$ ?9 {/ l# }% B* a3 V$ U
00:46:35.459 : en:Chapter 08! {" T( [' t6 m
00:52:41.867 : en:Chapter 09
: R; c/ v5 W7 }; f; S9 t01:01:22.011 : en:Chapter 105 r3 F" _$ g2 e& k& V9 @  _) i
01:08:59.802 : en:Chapter 11" y* k* ]8 C' Z6 X5 {
01:14:49.735 : en:Chapter 121 J& F& \8 r* Z( O: b
01:19:23.925 : en:Chapter 13
! h3 H: M; d+ O7 ~01:24:46.539 : en:Chapter 14
& r! b0 F" y. ]. H. w: t4 z5 L3 Q2 h01:30:25.336 : en:Chapter 15
# o0 c. _: Q$ g3 r01:35:24.927 : en:Chapter 16
. _) q  g' g+ t; ]$ @7 J01:39:33.342 : en:Chapter 170 d. |0 c% f( K
01:43:04.178 : en:Chapter 18
# g$ ^9 a+ R4 j1 d8 M01:48:54.694 : en:Chapter 19
; J6 z  `+ R) r* L0 o  p01:53:38.603 : en:Chapter 20
Video3 C# B! }6 b- t4 w6 t( U2 G1 T* m
ID : 1
# l- Y$ n( k' b$ V1 x. ^% zFormat : AVC
5 y/ ~* z  U, |8 S. BFormat/Info : Advanced Video Codec8 c% R) f! U5 I+ X" I' ?  b4 ~
Format profile : High@L4.1
; p" d; p9 ~* @6 HFormat settings : CABAC / 4 Ref Frames5 b, ]4 c# S; b3 g9 ^  D) ~. E
Format settings, CABAC : Yes4 T6 R4 t( G/ S2 }5 ~: o2 A: ?4 t
Format settings, Reference frames : 4 frames
& j, ^& m2 B* I. S) D/ G' \; QCodec ID : V_MPEG4/ISO/AVC
9 |) _7 M* f0 ^$ q, eDuration : 2 h 4 min
  N% F. ~- m$ f2 F" [9 YBit rate : 11.5 Mb/s
$ Y- t) n1 {3 l: aWidth : 1 920 pixels
; P( R+ Y2 ]7 ?1 f5 YHeight : 804 pixels1 l9 r7 a* V6 A* a9 z9 ~/ `
Display aspect ratio : 2.40:1
& K: x) M: q- ^2 i$ tFrame rate mode : Constant) q/ W0 U/ I9 _8 d  d
Frame rate : 23.976 (24000/1001/189150) FPS
- {6 Q9 z( n! T0 A2 G+ J- M: DColor space : YUV# f# c8 c: A* d5 {4 M
Chroma subsampling : 4:2:0& Z! W( |$ r( J5 j' Q' {# x/ g
Bit depth : 8 bits
: P1 T7 d' Z9 x; K  eScan type : Progressive: m) g+ v, J8 N0 g7 ~* c
Bits/(Pixel*Frame) : 0.3112 N% b  T2 _) f$ g$ B! W4 S4 M
Stream size : 9.99 GiB (76%)
/ F7 g. ?4 ~5 x$ o* \3 QTitle : The.Invisible.Man.2020.1080p.BluRaycd.x264.TrueHD.7.1.Atmos-FGT2 X8 b: J$ |% `/ e; M3 j
Writing library : x264 core 148 r2748 97eaef2
4 ^5 O" J' {, `( x$ pEncoding settings : cabac=1 / ref=4 / deblock=1:-2:-2 / analyse=0x3:0x113 / me=umh / subme=9 / psy=1 / psy_rd=1.00:0.15 / mixed_ref=1 / me_range=16 / chroma_me=1 / trellis=2 / 8x8dct=1 / cqm=0 / deadzone=21,11 / fast_pskip=1 / chroma_qp_offset=-3 / threads=72 / lookahead_threads=3 / sliced_threads=0 / nr=0 / decimate=1 / interlaced=0 / bluray_compat=0 / constrained_intra=0 / bframes=3 / b_pyramid=2 / b_adapt=1 / b_bias=0 / direct=3 / weightb=1 / open_gop=0 / weightp=2 / keyint=250 / keyint_min=25 / scenecut=40 / intra_refresh=0 / rc_lookahead=50 / rc=2pass / mbtree=1 / bitrate=11500 / ratetol=1.0 / qcomp=0.60 / qpmin=0 / qpmax=69 / qpstep=4 / cplxblur=20.0 / qblur=0.5 / vbv_maxrate=31250 / vbv_bufsize=31250 / nal_hrd=none / filler=0 / ip_ratio=1.40 / aq=1:1.00
2 _: `6 x4 h7 n5 F+ |Language : English/ T  u* g( ]/ ^: B7 p
Default : Yes
3 I/ a6 d& a6 vForced : No
6 A6 S5 ?$ \6 a0 Q' r, C4 b( `$ F7 P/ k7 b8 I9 B+ i' J" v
Audio #1
. @% j; i0 W% xID : 2
" P; K7 j' j* }' m+ `ID in the original source medium : 4352 (0x1100)9 w! O, d7 ?; j& @7 O, u
Format : MLP FBA 16-ch  O% ?- \" y$ n$ T- x) K. O5 R4 E
Format/Info : Meridian Lossless Packing FBA with 16-channel presentation8 t+ ^' t3 u; V5 f* U" G
Commercial name : Dolby TrueHD with Dolby Atmos1 k% G5 i8 n& Y( D0 x: \0 o
Codec ID : A_TRUEHD
6 l3 w1 S0 z" z6 nDuration : 2 h 4 min
/ i3 W) F' b* `3 I0 q4 g3 FBit rate mode : Variable* E$ j" N, g" S1 S
Bit rate : 3 050 kb/s
% ?8 v; b0 _7 p1 z' DMaximum bit rate : 5 652 kb/s" E- k- p: \9 q2 E( N
Channel(s) : 8 channels
. r3 P) |, N: J% RChannel layout : L R C LFE Ls Rs Lb Rb
& s4 t& h% e/ w! [; Z5 iSampling rate : 48.0 kHz
, L" _5 D1 ]9 t8 |( PFrame rate : 1 200.000 FPS (40 SPF)5 S3 `3 N! A9 S. {5 r
Compression mode : Lossless. v. f. [; c8 `: [$ R7 k8 I6 D
Stream size : 2.65 GiB (20%)
" [0 G4 b3 c6 ^( c# O# `+ r) UTitle : The.Invisible.Man.2020.1080p.BluRaycd.x264.TrueHD.7.1.Atmos-FGT' b; g" b8 V6 Q
Language : English
7 Y$ e2 J4 Y, @3 |" `0 t; y" q+ ODefault : Yes
. D# D, {; ?2 o  J9 jForced : No: i, k9 |$ x! _1 P+ O/ c
Original source medium : Blu-ray# b! J! D/ G4 U, ?( m! T' M# L% V
Number of dynamic objects : 11
( P0 t: Q7 v1 K7 _  e/ w/ dBed channel count : 1 channel
  l! g1 \$ j" Z; t2 @Bed channel configuration : LFE
( G2 Y- b  [+ y1 F' R% [3 _, p: _0 i5 a* S* [* C
Audio #23 e& w7 F" [( ]6 q7 z# S
ID : 3- C4 V. o4 T- J. X: I4 b# B( `
ID in the original source medium : 4352 (0x1100)- F  w2 S6 @5 @5 u& z0 j
Format : AC-3
, _% E; A7 c  e: c$ \Format/Info : Audio Coding 3
5 v4 V  ^% H# O, H7 Z7 SCommercial name : Dolby Digital
# A- {) u. B0 H7 \" o, I9 ZCodec ID : A_AC3- K. A$ P; [, k' ~  C' L
Duration : 2 h 4 min% p4 I. ~9 @$ v( B9 w( x
Bit rate mode : Constant' @# I, o* d8 B  ~4 z* z2 P
Bit rate : 448 kb/s
  |% k) p4 ]' t+ [9 l) TChannel(s) : 6 channels! d. }& X! }; b4 A: G7 w
Channel layout : L R C LFE Ls Rs
. c8 t4 c- V+ g$ ^8 ^+ ^' U# e' BSampling rate : 48.0 kHz" V* j9 V/ q( F# e/ H* f
Frame rate : 31.250 FPS (1536 SPF)
7 m, J. j. ~5 t, aBit depth : 16 bits
0 I+ {7 Q! n+ n. b/ QCompression mode : Lossy8 ?$ w4 N' z% p9 f) C8 e
Stream size : 399 MiB (3%)
* s% @* V* o) T* J1 F. ]3 ~: l& \7 YTitle : The.Invisible.Man.2020.1080p.BluRaycd.x264.TrueHD.7.1.Atmos-FGT& {7 s) \; `* z) I8 \9 A
Language : English
/ S4 H+ j" {3 z; N0 TService kind : Complete Main; C* V, z9 l2 u" s- ~4 e! i9 e2 Y7 V( z
Default : No! m( N0 t( s1 \# A
Forced : No- B5 u& E, I( M& z
Original source medium : Blu-ray; ^0 X: l6 V8 m; t1 a

; ]# q! j& a& N) |, SText #1
2 B! Q+ |# H: XID : 4
+ _* f  G, Q& ~9 V; _( b$ AFormat : UTF-8
/ J& e5 N* v5 }7 r! ]2 RCodec ID : S_TEXT/UTF86 u/ c& g! C- r- Y
Codec ID/Info : UTF-8 Plain Text7 m: U4 @9 u! Q4 s
Duration : 1 h 49 min
9 h  @9 l/ y% OBit rate : 31 b/s
3 x0 h$ G: t) u6 fCount of elements : 863
9 [" [* j6 I" Y# D7 LStream size : 25.5 KiB (0%)
/ a- F' R* ^& {* u' F- BTitle : English-SRT
+ x& U0 C5 X+ a" v/ g8 y0 TLanguage : English3 o' G; O( W  q  K6 T0 K7 q- H
Default : Yes
: k" Y7 }3 _9 S+ OForced : No" E# r' a4 E  u' U' P7 _+ G

0 y! V" }4 F6 R( nText #2* ?/ U1 f* E( T! y
ID : 5
: m' {; R  [# b$ T9 x  s+ [Format : UTF-8
% y# m+ |0 B/ @% U/ yCodec ID : S_TEXT/UTF88 r9 i; @7 q- ?6 ]4 K
Codec ID/Info : UTF-8 Plain Text" c+ B( s0 B- f
Duration : 1 h 50 min
9 P: J) p$ u% t" m, J9 C6 LBit rate : 35 b/s8 {  c9 {% \5 w
Count of elements : 1045
9 a3 a5 W$ {9 ?& O4 O1 kStream size : 28.9 KiB (0%)
1 a8 e) E+ Y3 Y. }* C6 aTitle : English-SDH-SRT6 t1 p, B& @6 A5 m' _* c
Language : English* _- ]6 @: {; s* y/ B9 L# V
Default : No- I3 ?. P1 R- u' |
Forced : No) E  L8 M9 h6 K% \: J3 e2 L  W3 K
1 d, p/ \* Y2 C5 }" S# m
Text #3
: {6 g" ^& b% \, {% S  zID : 6
- }4 V3 t( y: c5 L1 i7 ZID in the original source medium : 4608 (0x1200)
/ n- R( o& S0 h, P4 BFormat : PGS
' K9 q/ Y" t- e+ PMuxing mode : zlib" A& m. `/ W* ^
Codec ID : S_HDMV/PGS+ I) o$ w5 U! {2 d; l3 Q" ~; @
Codec ID/Info : Picture based subtitle format used on BDs/HD-DVDs
" A! E$ E! S  d0 x6 k2 p! C% QDuration : 1 h 50 min
- M. ?3 \. L3 u0 J: l" {Bit rate : 24.9 kb/s7 |; {. s% U5 l1 Z& F! K. O* Z
Count of elements : 2096
6 c$ P8 h0 P. K* K; OStream size : 19.6 MiB (0%)3 P8 L' `1 l8 W5 B0 t8 S
Title : English-PGS
3 ]/ h7 Y2 Y2 o, v) ?Language : English
' _! }1 d* [! Z2 ODefault : No
6 D1 A2 h8 d* e3 g% zForced : No/ t5 L( _( ^: r3 e+ x% N' x, W: [
Original source medium : Blu-ray" e$ q" O: b3 k( a* \$ z
& e/ N8 j: d+ a3 t
Text #4
2 ~) C+ e; K, E5 NID : 7& Z6 C' N* C, w( i4 k& P
ID in the original source medium : 4609 (0x1201)
  s, a- j' Z: `9 J+ {6 |Format : PGS( o2 R3 r  {9 S7 Z6 h" T. ~
Muxing mode : zlib" ~. P( u) B- g3 b0 i
Codec ID : S_HDMV/PGS
& \8 `: G2 C1 j! E' nCodec ID/Info : Picture based subtitle format used on BDs/HD-DVDs
+ I+ l+ z( n2 P* g/ l: A! uDuration : 2 h 3 min
7 e% Z: O- c' M4 t9 E& y+ FBit rate : 17.0 kb/s
/ |. ?/ Y6 M( Y# HCount of elements : 1792, D1 W; n$ x# D! f
Stream size : 15.0 MiB (0%)
5 d7 W, C, I0 Q3 i' |Title : Spanish-PGS
% V% X3 [' b( j' [' c! }1 ELanguage : Spanish2 h2 A* A& W* d6 T
Default : No
' T' ~' B: V) U4 T& O" i5 L: F. VForced : No
1 V* @/ R# R$ p* b, pOriginal source medium : Blu-ray) |  i  b4 R& Q0 o. f
! g% _: W* R9 O5 _. n) T
Text #5
7 S8 }+ B  r& \5 T% c* h- }ID : 8
8 B3 }* [2 `! m* [2 C# kID in the original source medium : 4610 (0x1202)
4 e+ E  o) n9 ^8 b# y5 zFormat : PGS
6 _. x% a( X7 Y( a3 I  kMuxing mode : zlib2 H4 k! c( L: k( C$ {  T
Codec ID : S_HDMV/PGS; j& q/ `$ [5 `, C! p( l8 D( ~
Codec ID/Info : Picture based subtitle format used on BDs/HD-DVDs
% p2 T2 r: b: Z5 h; Y1 IDuration : 2 h 1 min2 O0 b5 r  E. X- c; w
Bit rate : 19.0 kb/s
/ @' i; q2 e' G/ ?) MCount of elements : 1752
2 J: O' Z! B# E0 j) K7 d4 GStream size : 16.5 MiB (0%)+ Q; U6 l  l" c: I5 k- ^' y4 K  n
Title : French-PGS
  `9 `) N/ X# c3 B8 O: TLanguage : French
" z1 \! Y" t# YDefault : No9 g5 |# \9 H3 |* F, V
Forced : No( i% G# U1 n# B5 W( k
Original source medium : Blu-ray
" ?5 i* m1 t3 g& ^  W8 ^7 j5 V/ s$ [- f7 B' e5 P* w% j
Text #6
0 Q3 L4 @7 P9 s& b4 m, Q2 zID : 9
' X2 L1 }  [' J2 T2 _5 XID in the original source medium : 4611 (0x1203)) v! a2 X  Y4 r# }: F" n
Format : PGS# U) t) M) T6 p! ]* }; t) T
Muxing mode : zlib
% M, {7 F2 t* J2 b5 |6 }. DCodec ID : S_HDMV/PGS
2 S) X/ H" z  Y  P! h0 }Codec ID/Info : Picture based subtitle format used on BDs/HD-DVDs+ u0 A  M0 I& E" M
Duration : 2 h 3 min
# C" p8 F4 e0 I  i) A5 R: e  P$ UBit rate : 620 b/s* ]$ S! C& u7 ~- I/ f2 u
Count of elements : 52
3 z8 J$ n6 u; A2 n- s$ q* G# V' UStream size : 559 KiB (0%)
$ ?7 v) p$ C7 z4 ITitle : Spanish-FORCED-PGS
% f9 j7 {. |. E. D% K# gLanguage : Spanish  o7 }$ k/ z( K# H
Default : No
: h: Q, D5 f- a! pForced : No
, c7 i) _$ O+ G6 o7 O3 R) qOriginal source medium : Blu-ray& B/ \6 \" S5 r2 c2 a4 @
9 T! s2 ?. t: B9 \" A! z
Text #7
" Y- o! J: s+ F; s% H* MID : 10
1 @2 A/ B! Z2 `/ x1 d6 e% J4 _% L6 UID in the original source medium : 4612 (0x1204)) I6 v# [+ L# \! A' j2 b, ]: u5 T
Format : PGS) X7 V0 k. i/ |* o0 i1 p
Muxing mode : zlib; Q7 i2 n# f/ D0 w$ j
Codec ID : S_HDMV/PGS
0 [4 b: ]0 p8 ?, z0 SCodec ID/Info : Picture based subtitle format used on BDs/HD-DVDs
" Z/ a; k+ R  A  eDuration : 2 h 1 min# P$ S  U8 Y' L+ Q2 a
Bit rate : 671 b/s2 m& z3 L3 [- \# P9 ]% T# r
Count of elements : 446 ]/ G6 H1 P0 o1 R! t; _
Stream size : 598 KiB (0%)
2 n( n7 i) {* t4 i* N) D, R) gTitle : French-FORCED-PGS( {1 i7 v! T1 p8 v
Language : French; f! f  H; f8 e3 [2 T
Default : No" T) I6 N4 Z  T& j( c* B: j
Forced : No& ]) B2 j% |! j& g
Original source medium : Blu-ray5 R( a! Y3 y0 Z4 P5 h

- v" U# m' ^8 f, a6 fMenu
1 x+ s" v6 w, D6 x00:00:00.000 : en:Chapter 01
' r& T9 O# S. l00:11:05.456 : en:Chapter 02; t; Z0 f; R; ~# D1 f5 t
00:16:08.968 : en:Chapter 03
; A2 I/ T) u% ~00:19:16.321 : en:Chapter 04
; U$ ~% Y: C3 d00:25:27.651 : en:Chapter 05
7 q) ?4 v* d; V6 G" u+ T( K" L00:35:52.233 : en:Chapter 06
; @% V" {! Q$ ~' p0 e00:39:50.179 : en:Chapter 07
% V7 U9 e4 V: L. h# u3 v' s00:46:35.459 : en:Chapter 08, K4 N0 J7 P7 G2 `6 H
00:52:41.867 : en:Chapter 092 I# S- i2 W, m* ~+ j. W, V- f$ m
01:01:22.011 : en:Chapter 10
8 c2 S, T2 m7 r3 B01:08:59.802 : en:Chapter 11: x5 T" A4 q# {/ }
01:14:49.735 : en:Chapter 12
" a1 F/ r2 h8 @. P. f; z01:19:23.925 : en:Chapter 13
% W- R! y$ Y9 }/ o1 S8 V01:24:46.539 : en:Chapter 14
) d% B5 m  d8 n: o4 \01:30:25.336 : en:Chapter 15
1 Y  B% s* z5 o: }% ]) v01:35:24.927 : en:Chapter 16
; M$ h3 N& E0 `% `; r9 Q0 E  Y& O01:39:33.342 : en:Chapter 17
8 Q$ {3 H) `+ s+ [" o% U$ f* G01:43:04.178 : en:Chapter 18& S0 [8 a3 @0 t* Y3 c$ i4 ~
01:48:54.694 : en:Chapter 199 E6 a0 q( v* l; N
01:53:38.603 : en:Chapter 20

! x) M) c6 ~% j* \& ~6 a! e! f
游客,查看本帖隐藏内容请回复 | 加入VIP可免积分免回复 了解详情 | 还不是会员:点击获取邀请码 Invitation Code

0

主题

647

帖子

2857

积分

Sponsor

金币
5 枚
体力
1590 点
QQ
七喜 发表于 2020-10-7 23:11:25 | 显示全部楼层
每天都来蓝光论坛看看,我爱蓝光电影。" a* \& f' `: T; ~. f& ~5 [
The decisive Replies sink is I get the sinking feeling great sense of accomplishment!/ L& }3 C. O# T0 T
这么好的帖子不回对不起自己!
3 d% a/ ]2 o4 pAfter reading the posts have nothing to do I Amoy posts!, y0 N0 w$ K% P" w3 ]7 B, S

本版积分规则

小黑屋|Archiver|蓝光电影资源网

GMT+8, 2022-8-15 05:07

Copyright © Tencent Cloud.

快速回复 返回顶部 返回列表