BluRayCD Forum

 找回密码
 立即注册【分享大片】
查看: 67|回复: 0
收起左侧

[2160P极清] 隐形人/隐身人 [4K SDR高码版] The Invisible Man 2020 2160p BluRaycd x265 10bit & 8bit SDR DTS-HD MA TrueHD 7.1 Atmos-SWTYBLZ 26.96GB & 25.29GB

[复制链接]

7293

主题

7465

帖子

9万

积分

Post Share

金币
16433 枚
体力
23235 点

卓越贡献勋章

黄金嫖客 发表于 2020-6-28 20:22:32 | 显示全部楼层 |阅读模式

* @. ~: X, j6 h: r  }1 o  ^1 ^4 v: h) i2 t" \. Z# j
◎片  名 The Invisible Man
! [; q$ v' n) J1 `1 O. l5 J% \◎译  名 隐形人/隐身人/隐形客(港)  G" B  d7 W% `/ N7 C! i# \
◎年  代 2020
- }/ p! V. n# |9 [' _! }◎产  地 澳大利亚/美国/加拿大/英国0 P) j% K6 j4 ~3 r3 l6 L0 \
◎类  别 科幻/惊悚/恐怖! T+ x! k  L6 E" k5 ]1 z6 r
◎语  言 英语/ D. D6 R" ~! m
◎上映日期 2020-02-28(美国)
# l" ~! N, F! }7 r  u. B◎IMDb评分  7.1/10 from 111,885 users
' P& p% z/ \0 r/ v/ F7 [$ I0 r◎IMDb链接  https://www.imdb.com/title/tt1051906/
# P9 R6 }* d; w0 F0 p◎豆瓣评分 7.3/10 from 122,304 users
- o9 V! ~7 q9 L4 m6 Z- r5 t◎豆瓣链接 https://movie.douban.com/subject/2364086/0 L; Q6 G5 ?, l
◎文件格式 x265 + DTS + TrueHD
4 |- Z, ^2 E; s1 ^9 O3 s% N+ E◎视频尺寸 3840 x 1606
8 G4 m3 _" m# H! O◎文件大小 1DVD 26.96 GiB & 25.29 GiB' H2 q% \3 B( Y5 X* g2 \  k8 P
◎片  长 2 h 4 min
, C; s/ V  D% m1 K/ y◎导  演 雷·沃纳尔 Leigh Whannell
( h+ O1 m% L# `◎编  剧 雷·沃纳尔 Leigh Whannell' i' s) g* u7 Q- y
       赫伯特·乔治·威尔斯 H.G. Wells
7 K% n& `" @# D8 _◎主  演 伊丽莎白·莫斯 Elisabeth Moss
' m8 L8 m4 c, S3 M/ W) Q       奥利弗·杰森-科恩 Oliver Jackson-Cohen. g/ T9 {& Y1 w) H+ T+ |9 z
       阿尔迪斯·霍吉 Aldis Hodge
6 E% ^0 V- U) y. J" u9 h  r       迈克尔·多曼 Michael Dorman
  @8 k0 [, @! i; W       斯托姆·瑞德 Storm Reid' w5 u" w- X8 l+ l) S
       本尼迪克·哈迪 Benedict Hardie1 F5 Q3 [! h$ v' X! v
       哈丽特·戴尔 Harriet Dyer
( {& o" b8 ]6 K2 G       瑞妮·林 Renee Lim" o1 i, M6 E% X& c0 S* Q
       布莱恩·米根 Brian Meegan
' [0 d3 F: t$ n: i, I3 Y       薇薇安·格里尔 Vivienne Greer0 e$ F* V( b0 j% d& x; J
       尼古拉斯·霍普 Nicholas Hope
8 D, h) S8 d9 d8 v       克利夫·威廉姆斯 Cleave Williams
9 l/ H* M3 G& E: k6 c       萨姆·史密斯 Sam Smith
! A- b! v+ C3 g/ T0 o% Q       扎拉·迈克尔斯 Zara Michales9 T' `+ B5 e* I6 U1 k! `+ e
       纳许·埃哲顿 Nash Edgerton- f: f) S: m4 O3 s5 I
       安东尼·布兰登·黄 Anthony Brandon Wong* A, I9 j+ Z" k) x* m# E, B$ y
       阿玛莉·沃德 Amali Ward
6 K( ~/ [  j& [! Q+ I       迈克尔·诺特 Michael Knott5 v1 N! p5 M& @: _  |
4 R( o8 d( g! y8 g: A8 f! n! K/ _
◎标  签 惊悚 | 悬疑 | 恐怖 | 科幻 | 美国 | 犯罪 | 2020 | 剧情0 E: g% L$ ?2 Y, }
6 r, r! q# W' r5 \& I
◎简  介  ; D; B0 X0 a( s+ s

9 N3 s/ |6 A1 p7 t# w, i  西西莉亚(伊丽莎白·莫斯 Elisabeth Moss 饰)再也想不到,曾经将自己迷得神魂颠倒的英俊男人阿德里安(奥利弗·杰森-科恩 Oliver Jackson-Cohen 饰),如今会成为噩梦的始作俑者。在和自己恋爱后没多久,阿德里安便开始对西西莉亚进行精神和肉体上的双重控制,终于,忍无可忍的西西莉亚在一天深夜用安定将阿德里安迷晕,成功的逃出了魔窟。) C0 Q" E/ }0 J0 a8 h

. t0 y2 y% |. ?6 U$ p  之后,西西莉亚震惊的收到了阿德里安自杀的消息了,她几乎不敢相信,这个魔头真的从自己的生活中彻彻底底的消失了。西西莉亚的疑虑并不是空穴来风,在她生活的角角落落中,似乎都有一个无形的影子在窥视着她,企图触碰她。8 y4 @6 k" ~9 a8 }. h( o
$ e3 G* s; [0 f
  When Cecilia's abusive ex takes his own life and leaves her fortune, she suspects his death was a hoax. As a series of coincidences turn lethal, Cecilia's works to prove that she is being hunted by someone nobody can see.  B4 h. k6 P; n& A/ v2 Z, u+ ]

% a' C1 A$ p2 R: g# M4 {6 ^* X
SWEATY BALLZ presents
5 U1 L, L- x) E# b# @5 O$ h4 N) f; T2 x2 h7 u5 d1 B* b+ V$ a
The.Invisible.Man.2020.2160p.BluRayCD.x265.10bit.SDR.DTS-HD.MA.TrueHD.7.1.Atmos-SWTYBLZ  m7 ^' E8 w$ _" l
Converted from 10 bit HDR to 10 bit SDR using tripple mixed Hable-Reinhard-JJ per scene+frame analysis algorithm
- j9 I% p- j3 u6 qScreenshots are 8bit SDR
; I# f/ D8 \( h2 \- @, T0 ~( n1 ]* X/ }4 C( j* Y& `3 r& u
Video) q& u  H" J0 J( l0 \, {8 O& f0 I$ G
ID                                       : 1/ W1 ^: l) u8 a! x+ u
Format                                   : HEVC
" ]$ w+ u5 j/ n* T2 n% gFormat/Info                              : High Efficiency Video Coding; ?3 j* c9 R3 N5 B6 [% k1 }
Format profile                           : Main 10@L5.1@High; q6 a; q; {( j$ P, P
Codec ID                                 : V_MPEGH/ISO/HEVC, X& n" ^; p) o$ x4 @
Duration                                 : 2 h 4 min7 z5 l. r) F, b" ~$ E3 K
Bit rate                                 : 23.5 Mb/s
6 ?% ]. w' V% E: h% i, G: o! ]3 yWidth                                    : 3 840 pixels1 v+ F1 w# q$ L: ?$ v
Height                                   : 1 606 pixels. B: k' z$ I2 E* E; u9 \+ h
Display aspect ratio                     : 2.40:1
# D& q8 q4 }: x2 kFrame rate mode                          : Constant6 a8 }5 z. Q# Q
Frame rate                               : 23.976 (24000/1001/37687) FPS
3 W6 B. w3 y( o) R- HColor space                              : YUV
" K6 N4 F7 Y8 ?( A) f# {1 dChroma subsampling                       : 4:2:0/ G  Y6 f, b% C: {
Bit depth                                : 10 bits5 y- C! M4 S. v! G3 ]0 [
Bits/(Pixel*Frame)                       : 0.159
* x: _7 h/ G+ m( D. `Stream size                              : 20.4 GiB (76%)* `# ^& R( ~8 p& l( Y. n
Title                                    : The.Invisible.Man.2020.2160p.BluRaycd.x265.10bit.SDR.DTS-HD.MA.TrueHD.7.1.Atmos-SWTYBLZ
4 l$ {. S! {7 {0 s- J) I  pWriting library                          : x265 3.0+1-ed72af837053:[Windows][GCC 8.2.0][64 bit] 10bit
+ w* j& f  _- I2 ~. h" ^Encoding settings                        : cpuid=1111039 / frame-threads=6 / numa-pools=40 / wpp / no-pmode / no-pme / no-psnr / no-ssim / log-level=2 / input-csp=1 / input-res=3840x1606 / interlace=0 / total-frames=178934 / level-idc=51 / high-tier=1 / uhd-bd=0 / ref=3 / no-allow-non-conformance / repeat-headers / annexb / aud / hrd / info / hash=0 / no-temporal-layers / no-open-gop / min-keyint=1 / keyint=24 / gop-lookahead=0 / bframes=4 / b-adapt=2 / b-pyramid / bframe-bias=0 / rc-lookahead=25 / lookahead-slices=4 / scenecut=40 / radl=0 / no-splice / no-intra-refresh / ctu=64 / min-cu-size=8 / no-rect / no-amp / max-tu-size=32 / tu-inter-depth=1 / tu-intra-depth=1 / limit-tu=0 / rdoq-level=0 / dynamic-rd=0.00 / no-ssim-rd / signhide / no-tskip / nr-intra=0 / nr-inter=0 / no-constrained-intra / strong-intra-smoothing / max-merge=2 / limit-refs=3 / no-limit-modes / me=1 / subme=2 / merange=57 / temporal-mvp / weightp / no-weightb / no-analyze-src-pics / deblock=0:0 / no-sao / no-sao-non-deblock / rd=3 / no-early-skip / rskip / no-fast-intra / no-tskip-fast / no-cu-lossless / no-b-intra / no-splitrd-skip / rdpenalty=0 / psy-rd=2.00 / psy-rdoq=0.00 / no-rd-refine / no-lossless / cbqpoffs=0 / crqpoffs=0 / rc=crf / crf=16.0 / qcomp=0.60 / qpstep=4 / stats-write=0 / stats-read=0 / vbv-maxrate=160000 / vbv-bufsize=160000 / vbv-init=0.9 / crf-max=0.0 / crf-min=0.0 / ipratio=1.40 / pbratio=1.30 / aq-mode=1 / aq-strength=1.00 / cutree / zone-count=0 / no-strict-cbr / qg-size=32 / no-rc-grain / qpmax=69 / qpmin=0 / no-const-vbv / sar=1 / overscan=0 / videoformat=5 / range=0 / colorprim=2 / transfer=2 / colormatrix=2 / chromaloc=0 / display-window=0 / max-cll=0,0 / min-luma=0 / max-luma=1023 / log2-max-poc-lsb=8 / vui-timing-info / vui-hrd-info / slices=1 / opt-qp-pps / opt-ref-list-length-pps / no-multi-pass-opt-rps / scenecut-bias=0.05 / no-opt-cu-delta-qp / no-aq-motion / no-hdr / no-hdr-opt / no-dhdr10-opt / no-idr-recovery-sei / analysis-reuse-level=5 / scale-factor=0 / refine-intra=0 / refine-inter=0 / refine-mv=0 / refine-ctu-distortion=0 / no-limit-sao / ctu-info=0 / no-lowpass-dct / refine-analysis-type=0 / copy-pic=1 / max-ausize-factor=1.0 / no-dynamic-refine / no-single-sei / no-hevc-aq / qp-adaptation-range=1.00+ l) x  p+ ?3 M# d. v* B
Default                                  : Yes
( p$ z9 V) w4 p- }0 N; xForced                                   : No: H) O6 N0 i4 f7 R4 G1 B* r

( j2 i, e/ H  N; U: `* o+ YAudio #1* V$ v+ T8 r) w) `) V
ID                                       : 2
6 M! T+ m, B0 {% g7 |/ U% UFormat                                   : MLP FBA 16-ch3 L1 c7 c5 D7 X& Z" v: y% K# F8 _
Format/Info                              : Meridian Lossless Packing FBA with 16-channel presentation
" v. Z1 j9 u+ j& a: i( t4 q: ICommercial name                          : Dolby TrueHD with Dolby Atmos
0 J. K& k4 s- v, I  p+ _Codec ID                                 : A_TRUEHD
/ d# Y% c' ?, Y, i# _Duration                                 : 2 h 4 min
* o* b& f4 P" g: m6 f% Y. E) RBit rate mode                            : Variable
5 [' `# v/ N% v' q0 g) e+ R4 aBit rate                                 : 3 050 kb/s& P6 R, N0 Z& a) g2 A4 H, D% d9 U) ]
Maximum bit rate                         : 5 652 kb/s
3 q6 J: H, _) AChannel(s)                               : 8 channels; M$ ~+ C( S( ]) z7 ?
Channel layout                           : L R C LFE Ls Rs Lb Rb- R  e8 y2 \: E9 B, @
Sampling rate                            : 48.0 kHz
1 Q- z% l) k. @Frame rate                               : 1 200.000 FPS (40 SPF)
1 u; B+ |' {5 w; n. N# KCompression mode                         : Lossless% i. R6 o$ l+ N9 v
Stream size                              : 2.65 GiB (10%)* Y: G( b! `$ @5 e
Title                                    : The.Invisible.Man.2020.2160p.BluRaycd.x265.10bit.SDR.DTS-HD.MA.TrueHD.7.1.Atmos-SWTYBLZ/ m  n0 D9 O, X. v4 H; f
Language                                 : English
* M! J5 O7 a& z0 J+ c& H4 N, HDefault                                  : Yes: p- G0 M: `! Y6 g
Forced                                   : No  A0 ]2 m8 L+ i  e
Number of dynamic objects                : 116 U( e3 R; [: V; f
Bed channel count                        : 1 channel
# N& n/ `: y1 W# ~7 `( \- E1 cBed channel configuration                : LFE
9 t4 Z* t/ |/ t  |9 [1 L. }
7 ~' h( H8 X& m+ a3 QAudio #2. a) f. [" x+ A/ ~4 U8 b
ID                                       : 3# \$ G# @8 Q+ s# t
Format                                   : DTS XLL
8 C! W( l8 ~% JFormat/Info                              : Digital Theater Systems( a( F0 F4 ~5 ?$ p
Commercial name                          : DTS-HD Master Audio
9 b" g5 u+ J& w) G* f8 Q) UCodec ID                                 : A_DTS
) \& Y. q% u1 ODuration                                 : 2 h 4 min
) X7 T4 Z# y! ~, W# \& |( D4 ^( HBit rate mode                            : Variable/ g* b& {4 }% k6 w/ S# D4 I* o
Bit rate                                 : 3 833 kb/s
$ m! M  V* X, B  a5 [  k- WChannel(s)                               : 8 channels
. K2 D- f7 @3 dChannel layout                           : C L R LFE Lb Rb Lss Rss1 o7 B# n; E1 z! ^% U* a2 }
Sampling rate                            : 48.0 kHz
# m* [) i' _/ M. [" n  x6 f, Y! s5 zFrame rate                               : 93.750 FPS (512 SPF)
4 D  i: L1 s3 C. RBit depth                                : 24 bits7 n: [& @! _% k2 x
Compression mode                         : Lossless
* p" G* K6 R9 r" S  N; wStream size                              : 3.33 GiB (12%)
+ L* e6 x; `& u/ d2 l0 k* gTitle                                    : The.Invisible.Man.2020.2160p.BluRaycd.x265.10bit.SDR.DTS-HD.MA.TrueHD.7.1.Atmos-SWTYBLZ
$ a2 C7 b8 E% i# ^- T: M, j8 [3 WLanguage                                 : English" e% _9 Y) s0 b( @# R! n
Default                                  : No& i6 k7 Z/ O4 z  g; A2 {+ D& u
Forced                                   : No8 o8 x6 F( z$ m! [' n+ B

; [& k& g. B0 w! x- h+ AAudio #3* u# }( `. l1 K- Z
ID                                       : 4) Z6 X$ U5 p" e( L/ t) \
Format                                   : AC-3( ~! u( }+ H) ?
Format/Info                              : Audio Coding 33 J# a# P; i) K
Commercial name                          : Dolby Digital
9 z% J" a. t5 e( t' A( x- K% s! eCodec ID                                 : A_AC36 o0 X% R( e# K- f7 |
Duration                                 : 2 h 4 min
8 b1 A; e. ]. g3 m) U: @Bit rate mode                            : Constant- M* d$ P" t& [; C* r7 z
Bit rate                                 : 448 kb/s' V4 m% R0 R  _' R: v
Channel(s)                               : 6 channels; o/ }6 ?4 Q4 h) w8 H5 X# T
Channel layout                           : L R C LFE Ls Rs( M& r' X* u( A  v% }
Sampling rate                            : 48.0 kHz
! `) G9 X. x( b$ [6 G+ |2 O$ tFrame rate                               : 31.250 FPS (1536 SPF)
* [2 ]8 S" _/ V$ Q( ]: [" YBit depth                                : 16 bits
' L0 m8 i. O& u2 ]! z" DCompression mode                         : Lossy' q, g7 g4 Q  ~! l
Stream size                              : 399 MiB (1%)% P- j4 O0 H' ^8 v5 C' L
Title                                    : The.Invisible.Man.2020.2160p.BluRaycd.x265.10bit.SDR.DTS-HD.MA.TrueHD.7.1.Atmos-SWTYBLZ8 t' u; o$ h1 l) M; n+ ~
Language                                 : English5 W& j; Q# p# Y2 r. A4 x
Service kind                             : Complete Main
! b3 K( f) I* O) zDefault                                  : No4 A4 E) C8 b* s1 C& z
Forced                                   : No
2 ]5 G4 x! t( {9 t$ x$ Q% }2 [; L: A$ Y) `# \$ ]
Text #1& d% ^" U/ E! f* E% Q0 l1 E
ID                                       : 52 L* a, y! p/ t3 x+ M
Format                                   : UTF-8. _- i1 c% D, |+ n7 u* O  i' E; P' k
Codec ID                                 : S_TEXT/UTF8* x7 S8 d, P" `/ x
Codec ID/Info                            : UTF-8 Plain Text4 M+ s/ ?9 Q% G
Duration                                 : 1 h 49 min
. u% e! {' k1 i4 k6 i! BBit rate                                 : 32 b/s  q! {+ H& O% \* m' {; R: F9 J
Count of elements                        : 8660 l6 Z9 l: I% T; R0 ?; C* C% ?' {0 y
Stream size                              : 25.7 KiB (0%)% G( b1 D' N1 F. Y3 d5 J/ P2 S
Title                                    : English-SRT
+ u, ]2 T7 {' S# a; A# t0 V- mLanguage                                 : English
) t1 S% G1 P. ^+ c+ W' `% mDefault                                  : Yes
5 Q" p* R' n+ r& g2 S/ |Forced                                   : No
3 l1 q+ \) u& F! o, F7 n8 I0 k/ h# G
! ~7 V* l3 [( M* f) R+ Z3 K1 O9 t( gText #2, h! g; I( w1 k) `
ID                                       : 6. U0 P6 S% j) D( U
Format                                   : PGS
! |7 i; p& g8 HMuxing mode                              : zlib
, o' ~1 k5 D6 [, {4 N' u6 OCodec ID                                 : S_HDMV/PGS! V: [+ k9 \0 v. E& ^
Codec ID/Info                            : Picture based subtitle format used on BDs/HD-DVDs# ?3 h1 |0 E+ `5 i5 W" H$ p! _
Duration                                 : 1 h 50 min
2 h8 \' y1 `7 p8 p6 @. Q7 }0 e* P. v! VBit rate                                 : 24.4 kb/s
9 D+ _6 R2 V: Q9 B& [/ Q2 kCount of elements                        : 2096
! t1 A3 m0 ?1 K7 S* [' M1 ?: y/ VStream size                              : 19.2 MiB (0%)! Z* e# f: \' c: f- P7 z9 K
Title                                    : English-PGS
+ P$ K1 _5 C! n  ~: o8 E9 fLanguage                                 : English) V# o+ f0 g, k' W, p
Default                                  : No
. m( b  F3 |+ o5 _( f3 N4 [Forced                                   : No* r8 h8 |( }* [8 i2 u( v; c
- Q; n) k( Z! P( r1 p" \
Text #3
# E) [( {' e: m/ ~  @ID                                       : 7) c- `  i7 g8 p" Y0 ?
Format                                   : PGS1 M# J" b8 ~3 V
Muxing mode                              : zlib
) k# Y9 S6 I: f# P0 OCodec ID                                 : S_HDMV/PGS
% [/ i$ F, o5 h1 [6 I  F# BCodec ID/Info                            : Picture based subtitle format used on BDs/HD-DVDs
7 S' E8 D/ ^! P  nDuration                                 : 2 h 1 min
9 }7 {0 {% g& x7 x/ G) P' J) m4 pBit rate                                 : 18.9 kb/s
- Z* i: G% {1 M7 p; YCount of elements                        : 1752
4 y7 ?. S( [2 k+ Z/ C, x; ^5 zStream size                              : 16.4 MiB (0%)
4 ?: ~: t) S$ |4 X7 f3 ATitle                                    : French-PGS' z! d: q; h9 z$ d9 w- y5 [' M6 F
Language                                 : French6 [" A5 d0 S) Q# ]- n' M
Default                                  : No
  h. {; C% f8 K* QForced                                   : No; S) m% L& \9 M, _

" G% b' V& z2 Z! rText #4
# k5 C. `. [+ X& T1 o" WID                                       : 8
2 J; m* w$ c( a0 A9 n1 sFormat                                   : PGS' f$ d" D" H1 ~; }+ l
Muxing mode                              : zlib
) W9 G4 _1 ?1 V" NCodec ID                                 : S_HDMV/PGS
1 I' M4 S/ O" O" H0 DCodec ID/Info                            : Picture based subtitle format used on BDs/HD-DVDs
  B9 P( w8 A" i: v+ tDuration                                 : 2 h 3 min
# h* I' O: \6 g7 M6 @  Z2 }Bit rate                                 : 17.0 kb/s
, e# C1 @5 ~& i3 @" K! CCount of elements                        : 1792" `7 \0 K$ U. b6 ~4 w; c
Stream size                              : 15.0 MiB (0%)
# |9 j4 c! E1 q) q7 n+ g+ t, ?8 ZTitle                                    : Spanish-PGS
# I- i- A/ z, E% Z+ _$ FLanguage                                 : Spanish; F, a; B6 Y) p4 E& p% X  j
Default                                  : No
; Z: V3 `9 r! Q" uForced                                   : No3 o: H+ K) Z* S* k

# @% t- ^4 R3 ~: ?2 O7 KMenu+ k" R2 A, k$ Z6 s2 Z
00:00:00.000                             : en:Chapter 1& c7 u1 t- W) _9 \1 z
00:11:05.748                             : en:Chapter 2# W/ B+ ]2 X1 C/ S' B
00:16:09.135                             : en:Chapter 3
" D7 ?, \/ n; W) z2 K00:19:16.322                             : en:Chapter 4* y; w7 k, p, k
00:25:27.651                             : en:Chapter 5
2 U/ ^: Q2 h0 n% M00:35:52.233                             : en:Chapter 6" O, g+ R  a+ q+ f' K' g
00:39:50.179                             : en:Chapter 7. c2 O& R6 I4 W( {- e
00:46:35.459                             : en:Chapter 83 F0 H# B) l4 d, ]4 v
00:52:41.867                             : en:Chapter 9" A1 z( E" w" T- \
01:01:22.012                             : en:Chapter 10
; S6 e4 M* q; O3 ]5 D2 R01:08:59.802                             : en:Chapter 11
1 G1 p# Z5 O0 o3 p  b8 `01:14:49.735                             : en:Chapter 12. N7 S( V1 v* {' h: V% J
01:19:23.926                             : en:Chapter 131 J. p/ @- E: h7 V3 E1 D
01:24:46.540                             : en:Chapter 14
+ A/ L& U3 H& \) Y. j3 j01:30:25.337                             : en:Chapter 159 }7 o8 T" ?/ t3 K- a
01:35:24.928                             : en:Chapter 16
+ [6 J- a) o& ~5 L8 Y01:39:33.342                             : en:Chapter 170 W) p! u8 g  M8 f- U
01:43:04.220                             : en:Chapter 180 H7 B, D+ v; B; _" f. O& V: W
01:48:54.695                             : en:Chapter 19
, ~1 N  S! F, E: r01:53:38.812                             : en:Chapter 20
SWEATY BALLZ presents
" @) R/ u9 P: V& X8 ?% j1 i1 K$ M0 f  q3 A
The.Invisible.Man.2020.2160p.BluRaycd.x264.8bit.SDR.DTS-HD.MA.TrueHD.7.1.Atmos-SWTYBLZ. [5 l, z- A; L/ ?1 d
Converted from 10 bit HDR to 8 bit SDR using tripple mixed Hable-Reinhard-JJ per scene+frame analysis algorithm
: ~) g9 p+ z$ `1 e
* t  i$ h7 X  H$ JVideo& V" D+ ~% l  d8 ^
ID                                       : 1+ J# N, i  o3 D3 Q. k- C
Format                                   : AVC* |1 @" ~9 V+ e* Q- ~
Format/Info                              : Advanced Video Codec3 x/ I* S7 ?6 ?3 I' z) q1 p
Format profile                           : High@L5.1
  R. t# }, a1 e8 ^7 u/ `/ ^Format settings                          : CABAC / 5 Ref Frames/ d( Y& D0 X" q& \
Format settings, CABAC                   : Yes
9 T2 k+ F3 R( R; t! h: V' MFormat settings, Reference frames        : 5 frames
2 U% {, I% U6 B# a( ]- a+ UCodec ID                                 : V_MPEG4/ISO/AVC
. ?8 l: E6 _. Q& y! W9 EDuration                                 : 2 h 4 min7 b/ H% m& `8 t, }
Bit rate                                 : 21.5 Mb/s/ z( R" ~  y6 U
Width                                    : 3 840 pixels6 a) k7 l6 L/ H0 Q$ s
Height                                   : 1 606 pixels  n, M! Q7 _! m" V" T: e( S
Display aspect ratio                     : 2.40:13 n' S7 Q# k% W% }! x- [
Frame rate mode                          : Constant5 Q9 d; D: |) H) s
Frame rate                               : 23.976 (24000/1001/37687) FPS
5 P* e1 \5 {9 Z! Y* y  Z: H- WColor space                              : YUV4 ?- P0 N6 l3 g/ w$ V' Z+ g$ ]
Chroma subsampling                       : 4:2:0
) u  S* a9 i1 |$ x# r7 hBit depth                                : 8 bits/ a* e# x" _7 k: C1 M. M4 l
Scan type                                : Progressive
4 n( V+ d/ S) C; B) \' n- IBits/(Pixel*Frame)                       : 0.146
& G; d* Q: `( t+ H# U9 \* y8 |3 C5 }Stream size                              : 18.7 GiB (74%)) Z, S+ a  }7 Z) b' c
Title                                    : The.Invisible.Man.2020.2160p.BluRaycd.x264.8bit.SDR.DTS-HD.MA.TrueHD.7.1.Atmos-SWTYBLZ' \4 y7 u7 c# w* ~! v! S. I9 ^" c
Writing library                          : x264 core 157 r2935 545de2f: _5 Z0 ]- ]% R- v
Encoding settings                        : cabac=1 / ref=5 / deblock=1:-1:-1 / analyse=0x3:0x113 / me=umh / subme=10 / psy=1 / psy_rd=1.00:0.15 / mixed_ref=1 / me_range=48 / chroma_me=1 / trellis=2 / 8x8dct=1 / cqm=0 / deadzone=21,11 / fast_pskip=1 / chroma_qp_offset=-3 / threads=48 / lookahead_threads=4 / sliced_threads=0 / nr=0 / decimate=0 / interlaced=0 / bluray_compat=0 / constrained_intra=0 / bframes=3 / b_pyramid=2 / b_adapt=2 / b_bias=0 / direct=3 / weightb=1 / open_gop=0 / weightp=2 / keyint=250 / keyint_min=23 / scenecut=40 / intra_refresh=0 / rc_lookahead=50 / rc=crf / mbtree=1 / crf=18.0 / qcomp=0.60 / qpmin=0 / qpmax=69 / qpstep=4 / ip_ratio=1.40 / aq=1:1.00# y# E- |% r& |. ?' Y9 Q- I. Q
Default                                  : Yes" ]- I2 m+ \4 ?# e+ i
Forced                                   : No; F$ b+ [1 {* o- R
- {, o7 K5 G5 K5 p, f
Audio #1
2 Q5 n+ l/ y- U, ^! f. TID                                       : 23 }- d( ]! p0 q( R7 h) W
Format                                   : MLP FBA 16-ch
/ @+ c- H$ D* }Format/Info                              : Meridian Lossless Packing FBA with 16-channel presentation
- J" b. {  I! j6 }. L" ZCommercial name                          : Dolby TrueHD with Dolby Atmos
- z3 [" V) K6 z3 Z; ICodec ID                                 : A_TRUEHD+ I$ |, v4 K; @% v# q
Duration                                 : 2 h 4 min' }/ H2 ^# V/ L+ T" \- h
Bit rate mode                            : Variable
) ?! w1 E5 @; Q, F+ y8 K& W; zBit rate                                 : 3 050 kb/s
$ j" F$ k  W6 PMaximum bit rate                         : 5 652 kb/s
; ^9 t* g. {4 R; z6 g! z; \Channel(s)                               : 8 channels; ]  o0 X7 A# Q1 d6 `. l( h1 y+ n3 f
Channel layout                           : L R C LFE Ls Rs Lb Rb
  ^4 W  @; g' s' }; q/ ^Sampling rate                            : 48.0 kHz
7 d% d7 c) z* p+ oFrame rate                               : 1 200.000 FPS (40 SPF)
0 D/ X* k* _7 H- ACompression mode                         : Lossless8 C$ m: j  K4 \4 d2 ?3 J( O/ G# t' q
Stream size                              : 2.65 GiB (11%)& S% \' a# F' p% @
Title                                    : The.Invisible.Man.2020.2160p.BluRaycd.x264.8bit.SDR.DTS-HD.MA.TrueHD.7.1.Atmos-SWTYBLZ
% [$ ]" ~# y0 `% y7 }; lLanguage                                 : English
) z, x6 l% |. g: lDefault                                  : Yes3 L4 a, b+ X! z. h; b; O
Forced                                   : No& I! G1 s2 m: p* Z
Number of dynamic objects                : 11, a/ v. Q  _* K; E2 n* B9 }
Bed channel count                        : 1 channel
0 [7 V; Z$ b- G1 @% T& K( r$ t. jBed channel configuration                : LFE
: n  q6 i: p5 i9 L4 p
6 n! ^) s/ r' o* |3 v% w# K) T/ _2 `Audio #2
- |2 @! {8 e9 V* d, MID                                       : 3
2 j7 j+ E5 R# q% t, D" p1 |Format                                   : DTS XLL
8 u0 ]5 ?( f( w1 H9 {Format/Info                              : Digital Theater Systems; @8 a3 o9 p, N, w& J$ J1 F+ I
Commercial name                          : DTS-HD Master Audio
. Z# K: m! r  L9 K7 f: UCodec ID                                 : A_DTS
9 T" F9 D8 [3 L- `Duration                                 : 2 h 4 min; Z7 R8 Y2 j) z1 s# H5 d5 `
Bit rate mode                            : Variable: G0 [3 V6 d( R0 N1 H
Bit rate                                 : 3 833 kb/s
1 {" V0 l; M4 u3 d1 I) W, FChannel(s)                               : 8 channels
1 h7 l$ j' z) c: [' L" V- uChannel layout                           : C L R LFE Lb Rb Lss Rss
9 N( R+ v8 l! n! Q- kSampling rate                            : 48.0 kHz# s$ @( M, N. K; b- `+ Y% z  E
Frame rate                               : 93.750 FPS (512 SPF)
) M4 Y, T( U2 n0 s9 lBit depth                                : 24 bits
+ Q" c- V" K0 @" b7 ^Compression mode                         : Lossless& D3 A& ]5 Z( a  I% Y* A+ U
Stream size                              : 3.33 GiB (13%)9 A+ Q& N) m" {/ k
Title                                    : The.Invisible.Man.2020.2160p.BluRaycd.x264.8bit.SDR.DTS-HD.MA.TrueHD.7.1.Atmos-SWTYBLZ
: H, {1 Z) m: e+ L) e4 d* }Language                                 : English- k  V- ~5 x1 C6 L! x. X3 c
Default                                  : No& ~9 O) }# [. W$ M0 x
Forced                                   : No
) d4 P% ]% Q# G1 U
: P9 y, N$ z! c! \/ Q% pAudio #3) m: f! a1 L+ S2 Y" L5 e
ID                                       : 42 n* L; Z( V: }0 [# n
Format                                   : AC-3, ]: ~" J( s8 N- J- d+ T
Format/Info                              : Audio Coding 3: M" Q+ [9 e/ v2 ~; T$ K+ ^
Commercial name                          : Dolby Digital
6 F" R* t5 N3 ?Codec ID                                 : A_AC3: E  u- B3 \2 C& J" x+ s
Duration                                 : 2 h 4 min
. r9 c5 _4 M, \8 i8 n  @Bit rate mode                            : Constant
& |0 ^( \9 ]' q7 o8 `( IBit rate                                 : 448 kb/s
0 z. ?9 V3 L( u6 SChannel(s)                               : 6 channels/ [0 `2 j: `) ?' i
Channel layout                           : L R C LFE Ls Rs# s% p! L& z1 n  e* o4 D
Sampling rate                            : 48.0 kHz; a3 Z% V) p; k- |" \" j6 t: t' N3 C1 U
Frame rate                               : 31.250 FPS (1536 SPF)* K6 c) }! B* b9 [$ |# G
Bit depth                                : 16 bits
- R( z8 U9 n# u$ l' ]5 B! E  KCompression mode                         : Lossy: x, I: g9 r- S; t& ?' O1 b
Stream size                              : 399 MiB (2%)# Y& l' Z9 |$ G7 G0 X2 c/ l$ s
Title                                    : The.Invisible.Man.2020.2160p.BluRaycd.x264.8bit.SDR.DTS-HD.MA.TrueHD.7.1.Atmos-SWTYBLZ- a% x% J! ?) n" s
Language                                 : English
: G8 v  Y- }& [2 YService kind                             : Complete Main$ A# U- K* U5 U6 L
Default                                  : No/ C2 T  Q% T/ N, Y
Forced                                   : No. V# U3 H! w% ]8 E7 h: @8 d8 n

* [4 K: Y' \% ?) o+ m' o( H, D' ?Text #1
+ A8 k5 K1 w$ t8 CID                                       : 5
$ F' |8 k& S# \* Z! AFormat                                   : UTF-82 s: v/ A5 H) ~0 B
Codec ID                                 : S_TEXT/UTF8
6 E# C. W6 h0 d; \1 [Codec ID/Info                            : UTF-8 Plain Text7 b( @$ H! F5 r% m1 b
Duration                                 : 1 h 49 min. R/ D, m- B7 z
Bit rate                                 : 32 b/s
' w) H- U" X$ M. O% yCount of elements                        : 8667 E8 e; g% C% m' E0 p8 ?$ Z
Stream size                              : 25.7 KiB (0%)
; Y% r, o2 j. i* ?: F# Q5 ?2 yTitle                                    : English-SRT" P+ G0 ], b# [3 e6 q
Language                                 : English
( m6 p9 q( r- v9 i  X  J7 QDefault                                  : Yes
, I1 y, d& Q' A2 _& xForced                                   : No
* [% P. O* A* d$ Q* y
! A  R3 M( r4 K% O" TText #2  w" ^1 e' T: P3 L
ID                                       : 6
+ J/ [) t9 R% E8 I- _- `Format                                   : PGS
# G( `0 z9 d+ |& H7 j) g8 }& N' eMuxing mode                              : zlib
" Q  \: ]+ O  m* NCodec ID                                 : S_HDMV/PGS
) N: j, M+ q9 |/ {3 rCodec ID/Info                            : Picture based subtitle format used on BDs/HD-DVDs. e3 l& a, k" G  o: R+ W3 {
Duration                                 : 1 h 50 min) r( F3 O2 k( L+ }" I' p5 @8 b
Bit rate                                 : 24.4 kb/s
* K- S* p, q  X  jCount of elements                        : 2096$ h  P: O8 Q. S4 q
Stream size                              : 19.2 MiB (0%)7 P. @/ @7 x" O+ J
Title                                    : English-PGS" h1 x- G7 q3 }8 T( G2 H( N/ L. p
Language                                 : English
: Z- |" {& }) v( Y: s, Z4 P, y" ]Default                                  : No
* W2 M# S; |) O* k9 ?1 @Forced                                   : No  z8 v! T* K# i. [
2 L; L: R3 l! O2 y4 L2 S
Text #39 a3 _1 s4 }+ b' N, f
ID                                       : 7
2 H& ^9 g0 A: [6 h1 V, M# q* PFormat                                   : PGS
8 a9 Y. Q. _  p5 BMuxing mode                              : zlib7 `* Z# M: {  j8 k. P, _) U2 y
Codec ID                                 : S_HDMV/PGS* e3 ]9 _, P2 e# H, Y$ j
Codec ID/Info                            : Picture based subtitle format used on BDs/HD-DVDs! L" v$ \. z2 U
Duration                                 : 2 h 1 min
* [+ }7 l- }$ c: GBit rate                                 : 18.9 kb/s0 x- h7 C4 Z/ `" w8 x1 L4 _
Count of elements                        : 1752
  V2 o0 V4 ?8 g  m5 m2 k, J- FStream size                              : 16.4 MiB (0%)* h1 r% A4 R$ e, w
Title                                    : French-PGS
- w1 d. m- b8 v0 W8 U: V) L, a0 _3 t, GLanguage                                 : French( Q" s! a5 s) Y
Default                                  : No1 P& M) h. k; A! |9 r" W
Forced                                   : No, @  E; M9 ~7 @2 O( P# h/ ~& s: g' V

) L" @+ G% A: l3 tText #4
8 [5 ^8 g8 u, l- ]5 t- UID                                       : 8: x5 n( C0 g3 r& c! F$ q# U2 v& H
Format                                   : PGS4 U" P. x% C2 Z8 C; t
Muxing mode                              : zlib1 H& E; }0 i) w# O. q  S
Codec ID                                 : S_HDMV/PGS4 k+ q# _( S5 e3 E1 k# ]6 N4 A( S
Codec ID/Info                            : Picture based subtitle format used on BDs/HD-DVDs
4 z2 ]) D. {  y& Z' EDuration                                 : 2 h 3 min
" T- ?5 h! ~/ M* L3 e3 z% `4 iBit rate                                 : 17.0 kb/s5 z% x& p$ z9 n9 X0 w+ u! f
Count of elements                        : 1792
' B* y) \+ e# D8 V$ ]8 {6 k- [Stream size                              : 15.0 MiB (0%)  ]! b" E: G4 u) k" ~4 Z5 ?$ |) }1 A
Title                                    : Spanish-PGS% B1 b# v$ M7 w
Language                                 : Spanish
7 T1 P: m' R# e3 PDefault                                  : No) O; ?( s2 D/ b0 ^7 l
Forced                                   : No
" C  ]- Y- Z+ U! ?+ G! M% @; d' g# U* B3 U
Menu' b, V# t. ?2 Z9 K0 T
00:00:00.000                             : en:Chapter 1
( P. T3 g2 G5 ^00:11:05.748                             : en:Chapter 2
8 ]1 I+ ~) U" [00:16:09.135                             : en:Chapter 39 P) l! |" d; G
00:19:16.322                             : en:Chapter 4
. m6 z, r% ?2 o( M% R/ J$ V1 Y; I00:25:27.651                             : en:Chapter 5+ N4 f6 U+ Y* @2 Y( ]/ m9 l# R2 [" g
00:35:52.233                             : en:Chapter 6
' t) b, \9 ]6 v00:39:50.179                             : en:Chapter 79 H8 L3 B- r! t) t
00:46:35.459                             : en:Chapter 8
! i9 a6 v6 L/ e% Z3 A00:52:41.867                             : en:Chapter 9; h! A) @5 @6 U
01:01:22.012                             : en:Chapter 10
; i( R2 e9 N" E01:08:59.802                             : en:Chapter 11
3 d! Y; D# P$ J7 t% O- n01:14:49.735                             : en:Chapter 12
4 l& E/ j& A0 y0 @4 I7 @$ K01:19:23.926                             : en:Chapter 13( a5 ]! I* ^; [$ b
01:24:46.540                             : en:Chapter 14' i5 I# U* l1 h' b2 J. W
01:30:25.337                             : en:Chapter 15
  V( }" f: C& I0 {2 A6 p01:35:24.928                             : en:Chapter 169 |' D$ ~& \& O; p; S* Y+ B1 X
01:39:33.342                             : en:Chapter 17
, R7 g3 a9 T3 h/ q& @% m! c: }9 V! n01:43:04.220                             : en:Chapter 18/ E4 p4 C. w' ^6 h, q
01:48:54.695                             : en:Chapter 19
! ^. z2 |5 n, C! a, L) l01:53:38.812                             : en:Chapter 20

, [: _! V7 w4 i0 P
游客,查看本帖隐藏内容请回复 | 加入VIP可免积分免回复 了解详情 | 还不是会员:点击获取邀请码 Invitation Code

本版积分规则

小黑屋|Archiver|蓝光电影资源网

GMT+8, 2022-8-15 06:34

Copyright © Tencent Cloud.

快速回复 返回顶部 返回列表