BluRayCD Forum

 找回密码
 立即注册【分享大片】
查看: 39|回复: 0
收起左侧

[2160P极清] 隐形人/隐身人 [4K SDR高码版] The Invisible Man 2020 2160p BluRaycd x265 10bit & 8bit SDR DTS-HD MA TrueHD 7.1 Atmos-SWTYBLZ 26.96GB & 25.29GB

[复制链接]

6585

主题

6758

帖子

8万

积分

Post Share

金币
15258 枚
体力
21549 点

卓越贡献勋章

黄金嫖客 发表于 2020-6-28 20:22:32 | 显示全部楼层 |阅读模式
- l" e) j+ P) `( n

' _' W- r6 o$ s. X: C+ l◎片  名 The Invisible Man
5 U% C! V' U, t◎译  名 隐形人/隐身人/隐形客(港)
3 s1 N* T: {7 V8 ~/ E% y◎年  代 2020% S, L  v0 j, u  g9 y; n: t& G
◎产  地 澳大利亚/美国/加拿大/英国
+ Z1 l7 H8 s9 j) I& O+ |0 v5 O◎类  别 科幻/惊悚/恐怖
$ Y" ]/ e2 f/ H◎语  言 英语/ l" G) R8 c- A9 v' F* v
◎上映日期 2020-02-28(美国)
" I" U7 k, ]3 ]# G4 Q0 v◎IMDb评分  7.1/10 from 111,885 users8 }+ q& W, Q1 q& h0 e
◎IMDb链接  https://www.imdb.com/title/tt1051906/: e1 i4 f5 T' T2 ]8 q% {$ c
◎豆瓣评分 7.3/10 from 122,304 users8 ~/ P1 ]/ {* u, j6 W
◎豆瓣链接 https://movie.douban.com/subject/2364086/( |8 n# @& {# r+ ]3 f  |
◎文件格式 x265 + DTS + TrueHD9 ~) p4 W6 L1 d7 C
◎视频尺寸 3840 x 1606, t" }$ c- \. {; v
◎文件大小 1DVD 26.96 GiB & 25.29 GiB6 V! W4 B) t3 O0 E0 L: ~
◎片  长 2 h 4 min9 T4 @2 Q: S; \1 w8 s$ c
◎导  演 雷·沃纳尔 Leigh Whannell! y! O  C$ B0 Q* }9 t
◎编  剧 雷·沃纳尔 Leigh Whannell3 A: Q" X* v$ {! c, O0 ^
       赫伯特·乔治·威尔斯 H.G. Wells
9 h; `8 k2 U0 B" S◎主  演 伊丽莎白·莫斯 Elisabeth Moss! ~! r6 o* v5 |
       奥利弗·杰森-科恩 Oliver Jackson-Cohen
; i& p$ u7 E9 G2 W4 R" f       阿尔迪斯·霍吉 Aldis Hodge
" f2 w( k8 ]% z+ g       迈克尔·多曼 Michael Dorman
9 }) O) c6 ^, i& ]1 H) V* F       斯托姆·瑞德 Storm Reid
4 a) b$ e. M" v1 M/ X       本尼迪克·哈迪 Benedict Hardie
% z+ s+ m" v& R& I) X2 d! f! y       哈丽特·戴尔 Harriet Dyer
, ]2 x- y' m( i" C  R" j       瑞妮·林 Renee Lim- h) {3 H; b% ^/ s" l' `
       布莱恩·米根 Brian Meegan
. j9 d. ~8 A+ Z. h: G$ _       薇薇安·格里尔 Vivienne Greer& _) c0 u( r! H/ a
       尼古拉斯·霍普 Nicholas Hope
  ~3 L" @, O1 y4 ^; N       克利夫·威廉姆斯 Cleave Williams6 l1 K* B' L0 P% m, ]
       萨姆·史密斯 Sam Smith
- X& q# |( I1 X& e2 G0 P       扎拉·迈克尔斯 Zara Michales
; W' Y1 N- i) l       纳许·埃哲顿 Nash Edgerton! x, v1 T8 q% B4 u
       安东尼·布兰登·黄 Anthony Brandon Wong
$ I" H& L3 U8 ]       阿玛莉·沃德 Amali Ward$ r" O3 \( _$ k* V- N! s
       迈克尔·诺特 Michael Knott
. R: A2 q0 [4 o) o1 v. o7 E' V, b0 n, c5 y  h
◎标  签 惊悚 | 悬疑 | 恐怖 | 科幻 | 美国 | 犯罪 | 2020 | 剧情: ]3 d1 h4 V. f: @0 a. ^

) @5 u4 T6 b9 _0 F◎简  介  
) k+ d' z/ J: b2 q' l
6 h: d& U0 Y3 p; M6 c7 ~  西西莉亚(伊丽莎白·莫斯 Elisabeth Moss 饰)再也想不到,曾经将自己迷得神魂颠倒的英俊男人阿德里安(奥利弗·杰森-科恩 Oliver Jackson-Cohen 饰),如今会成为噩梦的始作俑者。在和自己恋爱后没多久,阿德里安便开始对西西莉亚进行精神和肉体上的双重控制,终于,忍无可忍的西西莉亚在一天深夜用安定将阿德里安迷晕,成功的逃出了魔窟。
2 P3 z& F% v. J+ A1 `4 F' b
$ g$ a0 A+ c$ a4 Y& X  之后,西西莉亚震惊的收到了阿德里安自杀的消息了,她几乎不敢相信,这个魔头真的从自己的生活中彻彻底底的消失了。西西莉亚的疑虑并不是空穴来风,在她生活的角角落落中,似乎都有一个无形的影子在窥视着她,企图触碰她。
- G; s* N8 c% H! T% }: b. z# [' ?8 G# s6 S
  When Cecilia's abusive ex takes his own life and leaves her fortune, she suspects his death was a hoax. As a series of coincidences turn lethal, Cecilia's works to prove that she is being hunted by someone nobody can see.( l$ J# y0 i/ @" r2 t9 U6 [9 m

1 A; A6 I# B* s
SWEATY BALLZ presents1 F6 ^+ C# O( J# M5 B- U  l! e
; k9 |) G# E! ]1 j9 Q* p
The.Invisible.Man.2020.2160p.BluRayCD.x265.10bit.SDR.DTS-HD.MA.TrueHD.7.1.Atmos-SWTYBLZ
' R  S6 {6 b6 OConverted from 10 bit HDR to 10 bit SDR using tripple mixed Hable-Reinhard-JJ per scene+frame analysis algorithm
5 A, E  d% E4 E2 G* mScreenshots are 8bit SDR
5 ]5 L% R& t. ]5 P* [" k0 u6 r7 ^& K
Video
9 R! F! A4 Y: G5 UID                                       : 1: F5 }+ E5 ?% {: a) Z& i
Format                                   : HEVC
* [5 D* U6 f. T  M. XFormat/Info                              : High Efficiency Video Coding) p- [# G% B9 n8 E5 l. \
Format profile                           : Main 10@L5.1@High! N4 \( m# \, E2 J# ?2 t
Codec ID                                 : V_MPEGH/ISO/HEVC& v7 C6 ?* s9 S4 x
Duration                                 : 2 h 4 min4 B" b, H9 a3 B) A
Bit rate                                 : 23.5 Mb/s
" g* O; t: \% E6 L, H1 |8 f) P: lWidth                                    : 3 840 pixels" n9 D' \9 ~$ s' }# y2 y* i4 a
Height                                   : 1 606 pixels
+ W# k& ]1 |( B) H- ?1 xDisplay aspect ratio                     : 2.40:1" G- P' {0 _' ^! i
Frame rate mode                          : Constant
$ Y2 N; [9 B4 y5 G0 F1 e- ~- lFrame rate                               : 23.976 (24000/1001/37687) FPS
/ s2 p- {6 p( Z9 GColor space                              : YUV% R, c5 s/ [$ X; E
Chroma subsampling                       : 4:2:0% X4 O9 E" m( y! `2 J, ~% Q8 G3 g
Bit depth                                : 10 bits% C! ?, v! X  F4 c3 M% F/ K
Bits/(Pixel*Frame)                       : 0.159
* a# [0 D; l' x) OStream size                              : 20.4 GiB (76%)
' x$ R+ G5 X# e, E& \Title                                    : The.Invisible.Man.2020.2160p.BluRaycd.x265.10bit.SDR.DTS-HD.MA.TrueHD.7.1.Atmos-SWTYBLZ2 I6 W3 W! O! E( {
Writing library                          : x265 3.0+1-ed72af837053:[Windows][GCC 8.2.0][64 bit] 10bit
% g" ?  }! Q8 |# c8 i1 v2 R6 EEncoding settings                        : cpuid=1111039 / frame-threads=6 / numa-pools=40 / wpp / no-pmode / no-pme / no-psnr / no-ssim / log-level=2 / input-csp=1 / input-res=3840x1606 / interlace=0 / total-frames=178934 / level-idc=51 / high-tier=1 / uhd-bd=0 / ref=3 / no-allow-non-conformance / repeat-headers / annexb / aud / hrd / info / hash=0 / no-temporal-layers / no-open-gop / min-keyint=1 / keyint=24 / gop-lookahead=0 / bframes=4 / b-adapt=2 / b-pyramid / bframe-bias=0 / rc-lookahead=25 / lookahead-slices=4 / scenecut=40 / radl=0 / no-splice / no-intra-refresh / ctu=64 / min-cu-size=8 / no-rect / no-amp / max-tu-size=32 / tu-inter-depth=1 / tu-intra-depth=1 / limit-tu=0 / rdoq-level=0 / dynamic-rd=0.00 / no-ssim-rd / signhide / no-tskip / nr-intra=0 / nr-inter=0 / no-constrained-intra / strong-intra-smoothing / max-merge=2 / limit-refs=3 / no-limit-modes / me=1 / subme=2 / merange=57 / temporal-mvp / weightp / no-weightb / no-analyze-src-pics / deblock=0:0 / no-sao / no-sao-non-deblock / rd=3 / no-early-skip / rskip / no-fast-intra / no-tskip-fast / no-cu-lossless / no-b-intra / no-splitrd-skip / rdpenalty=0 / psy-rd=2.00 / psy-rdoq=0.00 / no-rd-refine / no-lossless / cbqpoffs=0 / crqpoffs=0 / rc=crf / crf=16.0 / qcomp=0.60 / qpstep=4 / stats-write=0 / stats-read=0 / vbv-maxrate=160000 / vbv-bufsize=160000 / vbv-init=0.9 / crf-max=0.0 / crf-min=0.0 / ipratio=1.40 / pbratio=1.30 / aq-mode=1 / aq-strength=1.00 / cutree / zone-count=0 / no-strict-cbr / qg-size=32 / no-rc-grain / qpmax=69 / qpmin=0 / no-const-vbv / sar=1 / overscan=0 / videoformat=5 / range=0 / colorprim=2 / transfer=2 / colormatrix=2 / chromaloc=0 / display-window=0 / max-cll=0,0 / min-luma=0 / max-luma=1023 / log2-max-poc-lsb=8 / vui-timing-info / vui-hrd-info / slices=1 / opt-qp-pps / opt-ref-list-length-pps / no-multi-pass-opt-rps / scenecut-bias=0.05 / no-opt-cu-delta-qp / no-aq-motion / no-hdr / no-hdr-opt / no-dhdr10-opt / no-idr-recovery-sei / analysis-reuse-level=5 / scale-factor=0 / refine-intra=0 / refine-inter=0 / refine-mv=0 / refine-ctu-distortion=0 / no-limit-sao / ctu-info=0 / no-lowpass-dct / refine-analysis-type=0 / copy-pic=1 / max-ausize-factor=1.0 / no-dynamic-refine / no-single-sei / no-hevc-aq / qp-adaptation-range=1.00
3 q: p+ R# Q1 R- [- K2 hDefault                                  : Yes
$ }) G+ H2 w! Q# |, B2 bForced                                   : No
8 c4 s/ @0 h2 P  _3 Y7 V! _7 K
* p" x2 Q: ?+ u) J2 Z# C4 H4 @$ Z6 _Audio #1$ }: i1 t# x) ]; m; Y0 }) T$ l9 w
ID                                       : 2
5 f" t8 i1 Q, q! z0 `& F9 @5 vFormat                                   : MLP FBA 16-ch) N! b+ N! E" v# T, n
Format/Info                              : Meridian Lossless Packing FBA with 16-channel presentation$ c+ ^. e- I4 G. w" ^
Commercial name                          : Dolby TrueHD with Dolby Atmos6 O# N! m( P' m) H4 x
Codec ID                                 : A_TRUEHD( r+ Z& E  {9 F* t8 e) a+ J4 P
Duration                                 : 2 h 4 min4 U% D5 w, m! U; D2 O, O
Bit rate mode                            : Variable. p6 y; h% e0 s2 r6 S
Bit rate                                 : 3 050 kb/s
) d0 i9 s. i& `* L  X1 t6 d2 |Maximum bit rate                         : 5 652 kb/s0 r- j7 z; v" r5 {  J1 C
Channel(s)                               : 8 channels% D1 h4 o4 A9 t5 R. v
Channel layout                           : L R C LFE Ls Rs Lb Rb& }5 c! y% _9 p  |: N( H9 }% b+ f
Sampling rate                            : 48.0 kHz
3 L9 B1 o/ c6 H1 x/ R4 w3 J+ MFrame rate                               : 1 200.000 FPS (40 SPF)
$ O' Y8 S8 q: I$ R; [Compression mode                         : Lossless
6 q' z7 M% a* {' dStream size                              : 2.65 GiB (10%)
4 q' j) e9 H+ g  M- U6 ATitle                                    : The.Invisible.Man.2020.2160p.BluRaycd.x265.10bit.SDR.DTS-HD.MA.TrueHD.7.1.Atmos-SWTYBLZ
8 ]/ Y# I0 m' _' L& @Language                                 : English7 g/ [8 }$ y& F
Default                                  : Yes3 `* ~, {6 {0 S+ X1 R% w: f+ ]( h
Forced                                   : No; f. d3 r: ]; N
Number of dynamic objects                : 11, H0 H3 `6 B% B9 D
Bed channel count                        : 1 channel6 e7 |( U7 W) y' S3 o+ J7 _) Y, L
Bed channel configuration                : LFE6 Y2 L2 O+ c* @! b( ?5 Q; A9 Q

6 o4 E! ?2 v+ ]0 r5 ZAudio #2# Y; e9 g4 H4 d- I9 l; Z
ID                                       : 3
- [6 l, {0 @$ H) w5 tFormat                                   : DTS XLL8 C7 X6 o' b* w6 u
Format/Info                              : Digital Theater Systems
- N% o2 a2 _* c* p3 {2 p# p& P8 eCommercial name                          : DTS-HD Master Audio7 J1 i9 g1 o* O' N, H# x) s
Codec ID                                 : A_DTS* @# k0 l. c8 P1 x$ h- f8 f7 p
Duration                                 : 2 h 4 min2 p# H4 L1 c: _* R9 I3 W
Bit rate mode                            : Variable# O$ ~+ \  k4 Z$ G: J7 o1 [
Bit rate                                 : 3 833 kb/s4 _8 X/ V  d/ x7 l0 Q  ?
Channel(s)                               : 8 channels
# c) Q* U& M* y: VChannel layout                           : C L R LFE Lb Rb Lss Rss
' w. e, Z/ m! ]Sampling rate                            : 48.0 kHz
% f2 ]! w, t* z& O( GFrame rate                               : 93.750 FPS (512 SPF), M0 E% T2 @8 r4 `# c
Bit depth                                : 24 bits
) `& H+ c5 [7 H9 z4 ~; f8 b; BCompression mode                         : Lossless2 N/ ?" x- w: f. i
Stream size                              : 3.33 GiB (12%)
* ?( o( t% E2 a( Z! Z: X/ e  |Title                                    : The.Invisible.Man.2020.2160p.BluRaycd.x265.10bit.SDR.DTS-HD.MA.TrueHD.7.1.Atmos-SWTYBLZ7 O. v$ [# N+ b1 B: S: D, c" F! r
Language                                 : English1 S6 h8 m* T" i
Default                                  : No6 g) X% q8 T, B% @2 {9 W( A
Forced                                   : No$ R9 N8 g7 G- v9 m' I6 J

% S# F! w0 q, y  |% r9 P9 CAudio #3
2 s7 [) v7 I" r% v) lID                                       : 44 b- W7 T! w9 x
Format                                   : AC-3
+ J, @; f* w! }( dFormat/Info                              : Audio Coding 3% Y( P- t8 @8 A) S. \# q
Commercial name                          : Dolby Digital
( `& f) ]/ x8 SCodec ID                                 : A_AC3
& g9 m% K; m" Q0 D; m4 ~$ oDuration                                 : 2 h 4 min6 A$ h1 X5 Y+ f4 n
Bit rate mode                            : Constant
: v' @! l9 r3 b# z1 c9 i" lBit rate                                 : 448 kb/s( Q; U4 f! A9 n4 N. x( s
Channel(s)                               : 6 channels- e! k$ l9 C  W+ y& d+ A
Channel layout                           : L R C LFE Ls Rs& _& ?  G; g9 L' y+ }5 M( x% z
Sampling rate                            : 48.0 kHz
+ ^9 M! Y7 G" n7 k! ~Frame rate                               : 31.250 FPS (1536 SPF)5 Z1 y' p2 L9 }% F& D. @
Bit depth                                : 16 bits
0 k2 E! _( N1 Z! F: l0 pCompression mode                         : Lossy
4 A7 Y3 F- y0 [. j9 a7 C. EStream size                              : 399 MiB (1%)
% S5 |3 n- T  aTitle                                    : The.Invisible.Man.2020.2160p.BluRaycd.x265.10bit.SDR.DTS-HD.MA.TrueHD.7.1.Atmos-SWTYBLZ
3 l) Z5 n6 M& _# a( a6 gLanguage                                 : English
, E; g% {0 E8 r& C# O+ Q0 p5 y/ CService kind                             : Complete Main% b. F5 |7 Q% e, R
Default                                  : No
+ k/ D" Y" ]$ ]% zForced                                   : No
& |( t" G( v6 r* {6 Z' N' o8 a% v8 {& P2 s: W
Text #19 d2 z, t: ?0 O: k. W
ID                                       : 5
- o# p. |+ j7 R6 SFormat                                   : UTF-8& e( R& j: i8 w! N+ H
Codec ID                                 : S_TEXT/UTF87 L. u/ a. _9 ]+ N: A5 j0 F+ c9 c5 X
Codec ID/Info                            : UTF-8 Plain Text) x$ M: W& ]( [, d$ u( @: R5 s
Duration                                 : 1 h 49 min- |2 B1 E, m1 j; d2 ^
Bit rate                                 : 32 b/s
; r4 ~8 C" Y; y6 \8 U/ }/ UCount of elements                        : 8667 \4 d+ z. v0 {9 U( H
Stream size                              : 25.7 KiB (0%)5 z& u3 }6 n7 q; O$ y) q" h
Title                                    : English-SRT
( |/ j) R( w4 F! s2 a4 B0 X' }Language                                 : English
$ g  X3 x* W7 NDefault                                  : Yes
% }* o! k$ Y/ U5 e- g: hForced                                   : No
4 O7 _9 s* \6 g/ ?( @  p& O# I% C+ ]
Text #2) ^. g, s' ?4 l, C
ID                                       : 6
: _; ]8 I7 T5 t. z" ]Format                                   : PGS
9 e8 T* Y& F; x; dMuxing mode                              : zlib6 x" w: Q+ ^+ A) L; _
Codec ID                                 : S_HDMV/PGS3 X( p* E' {: {+ ~& v1 n( p
Codec ID/Info                            : Picture based subtitle format used on BDs/HD-DVDs
- p/ i  z* n2 i( S/ t0 hDuration                                 : 1 h 50 min
7 L9 v; D+ U6 J  q2 ~Bit rate                                 : 24.4 kb/s7 ]4 q: Z. H! t9 i0 i
Count of elements                        : 2096
6 ]# ?5 Y" r9 r$ l* |% F: S# aStream size                              : 19.2 MiB (0%)' p7 i( p: W/ N) ~
Title                                    : English-PGS
5 `# b' R* F$ \* f+ Y) }3 q1 \Language                                 : English
# b6 X* Q0 u  |  l8 L& S6 ^Default                                  : No" j) b& X: v' I7 `! y
Forced                                   : No, r, ^: f2 x, P" ~  {, d1 i

- f; k3 ~# p" ?Text #3
8 E1 W2 E: z* n" g6 @ID                                       : 7
  X4 b% Q! |% e2 s8 vFormat                                   : PGS1 S2 Z# M4 F& W0 A
Muxing mode                              : zlib
) A8 S6 p" s% n$ q* a, dCodec ID                                 : S_HDMV/PGS
# ^1 p6 S* v2 N- I+ H( G2 ~4 S% TCodec ID/Info                            : Picture based subtitle format used on BDs/HD-DVDs; u  t/ N& k1 M- y/ i1 i- c
Duration                                 : 2 h 1 min
/ T& Y* c7 l, B' b. `Bit rate                                 : 18.9 kb/s
8 L! G2 B& N0 U5 z5 [( fCount of elements                        : 1752
; w0 f7 U) q9 f$ e6 iStream size                              : 16.4 MiB (0%)
4 h/ e, Y& u: X: i7 Z+ ETitle                                    : French-PGS6 }0 W. B8 O. x( ^/ V% G6 Y
Language                                 : French  Y6 e0 `$ a. R& x) i# |& b- J
Default                                  : No
: G+ k# e  V4 s8 pForced                                   : No
5 y4 w8 ?0 d% W
- ^; Q" Q* `; [: L. S7 N/ ?Text #4+ u' _( B6 u0 I$ E4 ^; Y/ z+ h
ID                                       : 8
! ^8 c  P1 I, t5 aFormat                                   : PGS5 P" |# [) n2 b% }- A3 j
Muxing mode                              : zlib
, p! f9 L/ Y  RCodec ID                                 : S_HDMV/PGS
9 X9 m7 }- r# N; r; jCodec ID/Info                            : Picture based subtitle format used on BDs/HD-DVDs
/ A$ E  N9 b5 D- o% cDuration                                 : 2 h 3 min
4 @' w- i" v' }4 XBit rate                                 : 17.0 kb/s0 c& L# I8 H7 ^  Z8 R. }
Count of elements                        : 1792
8 C. e8 @1 {( w- GStream size                              : 15.0 MiB (0%)& f1 J* B0 y6 U/ s9 u0 f) i
Title                                    : Spanish-PGS2 ^( T5 N% q3 O/ g3 ~% S/ Q
Language                                 : Spanish
1 U; h0 }- w2 @, PDefault                                  : No2 U; w  |, ^8 m; L9 E
Forced                                   : No
/ `" }: p' G/ L! E+ c+ W& B
7 M2 T! A! p# RMenu
, O" [, ^: S" \% @( G1 C" L& ?00:00:00.000                             : en:Chapter 1. w5 z$ x7 |1 \" I; X5 d2 H
00:11:05.748                             : en:Chapter 20 l  ?2 ^4 R" u$ J
00:16:09.135                             : en:Chapter 3- Y% J1 w) x" [4 Q# ~
00:19:16.322                             : en:Chapter 4; Q# s5 P. s8 m% M; Y
00:25:27.651                             : en:Chapter 5
; b; N9 I/ t% _2 |; J00:35:52.233                             : en:Chapter 6
7 Q2 D: j0 i# N/ b3 `00:39:50.179                             : en:Chapter 7
5 x# ?, h( A) L% V! `+ R00:46:35.459                             : en:Chapter 8: P9 \# E5 P5 L2 `) m3 }: H7 v" g
00:52:41.867                             : en:Chapter 9# Q$ C- \, Y% l- c' ?2 K, F
01:01:22.012                             : en:Chapter 10) ?: R- D' X; j# H7 V7 p! M
01:08:59.802                             : en:Chapter 11
8 {6 H, G- A8 _1 f01:14:49.735                             : en:Chapter 128 Q( h# c  ~" r6 _5 z) D$ A, q. d* g
01:19:23.926                             : en:Chapter 13
/ V& ]* c" q( R8 l01:24:46.540                             : en:Chapter 14
% h% B' V6 G, A( ?01:30:25.337                             : en:Chapter 15
8 H  K2 r6 V, }5 l$ F6 \01:35:24.928                             : en:Chapter 16
2 q7 I$ Y4 L8 q4 s) e1 k% r01:39:33.342                             : en:Chapter 178 A! i6 u1 W7 C% M8 n. Q
01:43:04.220                             : en:Chapter 181 C" H' x) a0 F0 }
01:48:54.695                             : en:Chapter 19
; U3 M$ S! z( R( O3 P01:53:38.812                             : en:Chapter 20
SWEATY BALLZ presents
4 E4 l; e- ]. d3 W  o- x$ V. V5 o$ d7 a, X# q- ~3 r$ a2 K0 |. ?7 {! N
The.Invisible.Man.2020.2160p.BluRaycd.x264.8bit.SDR.DTS-HD.MA.TrueHD.7.1.Atmos-SWTYBLZ
5 l% P5 J) f/ E+ yConverted from 10 bit HDR to 8 bit SDR using tripple mixed Hable-Reinhard-JJ per scene+frame analysis algorithm
9 l& Y! }% c# c* ^* ^9 W- K- X( _+ Z( `2 o% L/ z
Video
9 x- n) u6 R5 k6 i* }ID                                       : 1
1 k8 ?2 F* p" Q4 j' O& n: OFormat                                   : AVC( W" x' Y# z: q' V
Format/Info                              : Advanced Video Codec
# f, I0 \& h) ^. w4 F- R. GFormat profile                           : High@L5.1
  D6 x3 L. [" r/ d4 _Format settings                          : CABAC / 5 Ref Frames
  i( J/ X6 r) F0 r. PFormat settings, CABAC                   : Yes
, H( [8 D1 Z2 Q" W$ X, U- ]Format settings, Reference frames        : 5 frames6 k. o* u* z9 a4 U; y. w- m
Codec ID                                 : V_MPEG4/ISO/AVC4 c* ?, @' @/ {% Y. T0 u  u
Duration                                 : 2 h 4 min' [& ~- n* z, w
Bit rate                                 : 21.5 Mb/s' X" d3 L  ^- R* W+ A- H
Width                                    : 3 840 pixels
; `; z4 u* x! g5 Y4 vHeight                                   : 1 606 pixels) S* T$ Q; y6 s/ x; I
Display aspect ratio                     : 2.40:12 u$ ~% |( `2 ^! H* O
Frame rate mode                          : Constant* u; A0 m- D3 x/ s- g; C3 H# J
Frame rate                               : 23.976 (24000/1001/37687) FPS+ K/ T0 P  u6 Z/ H
Color space                              : YUV
- A- o8 C' ]' t' I: U9 NChroma subsampling                       : 4:2:0
& @' [/ J- L& q+ QBit depth                                : 8 bits
* g) N( k" V/ y9 FScan type                                : Progressive! e6 t$ Z/ C5 _( J& I7 P4 ?
Bits/(Pixel*Frame)                       : 0.1463 ]6 a- Q" L$ K( R' J0 a
Stream size                              : 18.7 GiB (74%)
5 M% t5 F2 j  K: xTitle                                    : The.Invisible.Man.2020.2160p.BluRaycd.x264.8bit.SDR.DTS-HD.MA.TrueHD.7.1.Atmos-SWTYBLZ
. t4 }" Z) t1 ~* ^$ oWriting library                          : x264 core 157 r2935 545de2f0 M8 M. U; U2 Z8 V  L) y& d2 \7 T
Encoding settings                        : cabac=1 / ref=5 / deblock=1:-1:-1 / analyse=0x3:0x113 / me=umh / subme=10 / psy=1 / psy_rd=1.00:0.15 / mixed_ref=1 / me_range=48 / chroma_me=1 / trellis=2 / 8x8dct=1 / cqm=0 / deadzone=21,11 / fast_pskip=1 / chroma_qp_offset=-3 / threads=48 / lookahead_threads=4 / sliced_threads=0 / nr=0 / decimate=0 / interlaced=0 / bluray_compat=0 / constrained_intra=0 / bframes=3 / b_pyramid=2 / b_adapt=2 / b_bias=0 / direct=3 / weightb=1 / open_gop=0 / weightp=2 / keyint=250 / keyint_min=23 / scenecut=40 / intra_refresh=0 / rc_lookahead=50 / rc=crf / mbtree=1 / crf=18.0 / qcomp=0.60 / qpmin=0 / qpmax=69 / qpstep=4 / ip_ratio=1.40 / aq=1:1.00
" F- c* R$ }4 pDefault                                  : Yes& x0 [. M' J, d% p) `
Forced                                   : No" I* J1 `/ U/ l4 e# V, g& _; W( B& E
5 V4 {4 m, Z1 S- p
Audio #1- L3 W2 o! b+ H, s, N& S; @
ID                                       : 2
4 f, a* c6 f' I8 ?0 d, PFormat                                   : MLP FBA 16-ch
" [- `8 \5 K) T, u! H7 Y) W4 ZFormat/Info                              : Meridian Lossless Packing FBA with 16-channel presentation
, P1 r5 s) v9 [8 B4 z6 [8 i; R7 F! J! fCommercial name                          : Dolby TrueHD with Dolby Atmos
3 y! }! z; i' a) L3 DCodec ID                                 : A_TRUEHD
7 H2 F  C& l* F- q+ ^Duration                                 : 2 h 4 min2 E1 d/ O! v4 ?* o# w4 @
Bit rate mode                            : Variable  z5 W& f" [  {/ ?, {
Bit rate                                 : 3 050 kb/s% S% H* Y7 E' s, i7 r* r
Maximum bit rate                         : 5 652 kb/s
9 t2 O# j2 ~7 [4 {' d; M# aChannel(s)                               : 8 channels1 D! i2 F8 A; F6 V8 @8 a, H
Channel layout                           : L R C LFE Ls Rs Lb Rb$ }, j" _$ b9 G) O& }% t' a9 i
Sampling rate                            : 48.0 kHz3 @: B) N  d; R. `0 Y1 b3 l: H
Frame rate                               : 1 200.000 FPS (40 SPF)5 ^- v4 M) H  j. i8 t
Compression mode                         : Lossless
+ _6 q( V0 D( |! [Stream size                              : 2.65 GiB (11%)
5 Y8 }" `- k0 z1 kTitle                                    : The.Invisible.Man.2020.2160p.BluRaycd.x264.8bit.SDR.DTS-HD.MA.TrueHD.7.1.Atmos-SWTYBLZ" q5 y- G0 ?" u, ~4 W) _& Y
Language                                 : English
( [* w( B( h1 YDefault                                  : Yes6 Q8 L  D' ]! U8 R. T. k6 H
Forced                                   : No
& M; x6 `5 ~$ pNumber of dynamic objects                : 11
' Y6 y, P/ j& S! M* oBed channel count                        : 1 channel
6 Z% Q- \7 P$ ]7 O. o4 r  }0 \Bed channel configuration                : LFE' O2 }/ r1 }$ L* R/ n' ^

( a- b; e. c. E/ d, M* i( aAudio #2
6 i# Q/ Z/ o( i- kID                                       : 3
; K& r& l: `0 I! R7 f1 B" \) fFormat                                   : DTS XLL& `9 i! q. ^+ M# z  [2 t
Format/Info                              : Digital Theater Systems& K  z+ f* e9 g6 v
Commercial name                          : DTS-HD Master Audio( O% p# r+ `- W2 P* K% B
Codec ID                                 : A_DTS/ m! x- n/ w  f1 V
Duration                                 : 2 h 4 min
( v) v" f+ w& r: K) HBit rate mode                            : Variable
4 X/ Y+ \5 |: y4 z$ y; P: o& c. rBit rate                                 : 3 833 kb/s+ j, E3 g% P) a+ j# `
Channel(s)                               : 8 channels
- P" v$ D. G" {6 ?0 GChannel layout                           : C L R LFE Lb Rb Lss Rss
/ {7 b( @/ u2 i# g$ x& ZSampling rate                            : 48.0 kHz9 u" P6 _- H: A6 Q% a
Frame rate                               : 93.750 FPS (512 SPF)- M& T! x2 a3 Q5 N7 \
Bit depth                                : 24 bits1 J7 n' J0 a; N/ G: M- }
Compression mode                         : Lossless3 o. ^0 r: z7 R: e3 x. j
Stream size                              : 3.33 GiB (13%)0 x( M) y. w4 B' C7 u1 E# k: f
Title                                    : The.Invisible.Man.2020.2160p.BluRaycd.x264.8bit.SDR.DTS-HD.MA.TrueHD.7.1.Atmos-SWTYBLZ; k: G3 p$ |* `, Y7 y) ]
Language                                 : English
) u% u5 Z9 s7 I. QDefault                                  : No: z# n6 A% ^8 @1 O  ~5 Y
Forced                                   : No
3 P$ Y& r4 h# Y* Y! a! T2 [8 `2 w5 X% D6 u6 M' \6 U. W# n
Audio #3$ w3 L6 `9 E' T  o% J" y
ID                                       : 4
: T2 j6 V2 ^* f7 U1 R0 Z" ]$ qFormat                                   : AC-3
* J1 v. T6 O) w7 a( M) E* aFormat/Info                              : Audio Coding 3) u- C2 Z0 }5 E$ Z2 e9 T
Commercial name                          : Dolby Digital- W5 B9 j9 L/ z% D
Codec ID                                 : A_AC3
9 S: N$ X& j' h$ i% |Duration                                 : 2 h 4 min
5 ]9 s- ?- c* EBit rate mode                            : Constant
/ ~6 P, {0 ?" NBit rate                                 : 448 kb/s
8 r; p8 z8 Z2 D& R! c) QChannel(s)                               : 6 channels
& [, M1 L* ?; \Channel layout                           : L R C LFE Ls Rs1 X8 a! w# M2 l" z' U0 H" \% R7 h4 u
Sampling rate                            : 48.0 kHz
4 v/ q" G- Z; u2 R0 v) V+ S" ZFrame rate                               : 31.250 FPS (1536 SPF), [0 O  f2 a5 G% J& m8 _
Bit depth                                : 16 bits' I) i& [! M1 A
Compression mode                         : Lossy
" I( M( c' z  C" {" y% LStream size                              : 399 MiB (2%)
7 N( D* F' o6 oTitle                                    : The.Invisible.Man.2020.2160p.BluRaycd.x264.8bit.SDR.DTS-HD.MA.TrueHD.7.1.Atmos-SWTYBLZ
5 c$ d# x2 A& d* nLanguage                                 : English/ w; b+ X( b/ |; j! F
Service kind                             : Complete Main
; l' N1 L) ~( w4 ADefault                                  : No
. Q. a  N' f: [- nForced                                   : No
! ^$ ~" I- J! _( s3 p% N' ?+ L# }, V" K. L2 |" M1 e6 t
Text #1' I0 x2 v; w2 o5 `6 `9 U8 I
ID                                       : 5' Q, p# c# T0 X. K7 d* |, ?; k: W
Format                                   : UTF-8
" G7 D4 w# A, I2 `1 H3 HCodec ID                                 : S_TEXT/UTF8
' G, H6 d. y; \' R! VCodec ID/Info                            : UTF-8 Plain Text; O( \, M# y) e
Duration                                 : 1 h 49 min
" I/ D$ A" H$ V- ~0 gBit rate                                 : 32 b/s
8 ]  B6 p2 ?/ y: t+ t* v5 vCount of elements                        : 866* D1 g# B) T; Y' d& m7 R5 Z
Stream size                              : 25.7 KiB (0%)2 U; l+ _! \% h' A' u
Title                                    : English-SRT
/ i, G0 l9 c0 i: L6 S1 @+ mLanguage                                 : English
7 F9 }/ z; C$ R  F  MDefault                                  : Yes1 E7 r( @6 [8 P% P3 G
Forced                                   : No1 L! L- s. J- R- H

0 e; n% }$ @- h) rText #2
; U# N- c( o$ ~: r3 kID                                       : 64 c. t% i$ ]  X9 }2 n1 W8 x1 r
Format                                   : PGS
/ P5 c1 u& x& KMuxing mode                              : zlib1 B- S: v( h4 b  ]  J
Codec ID                                 : S_HDMV/PGS1 q3 W1 ~5 C1 C) S; j, C: k7 m
Codec ID/Info                            : Picture based subtitle format used on BDs/HD-DVDs3 a* G" }. _. s% Y
Duration                                 : 1 h 50 min/ k9 S# n( \  {  o' F: w" k- I
Bit rate                                 : 24.4 kb/s  H% E' r% Y7 v0 [6 o- ]# v( R
Count of elements                        : 20963 F& J8 U8 i$ y4 U% W3 ~! A' H
Stream size                              : 19.2 MiB (0%)
# i# b! c4 A2 v, W  V0 FTitle                                    : English-PGS# z; D; z: ^& z$ q! t/ w" I
Language                                 : English( `0 p- {; {$ Z! I6 i1 B- w$ r9 V
Default                                  : No
+ `% l/ }) l1 M+ G" dForced                                   : No& D! l% R# k3 f/ g0 b

7 e: m; k# |( Z9 ^0 L! HText #3  z% o9 S% n$ i' V) I- |
ID                                       : 7
/ x4 j, Y3 h; m0 k5 WFormat                                   : PGS
# T3 P6 E! T# M6 C6 ]* C8 l/ s  b" yMuxing mode                              : zlib9 D6 b! E& Y7 |+ u& f8 J5 K
Codec ID                                 : S_HDMV/PGS
# \+ }4 g( B4 m( {Codec ID/Info                            : Picture based subtitle format used on BDs/HD-DVDs3 T: p, }- X, n# p8 x7 H  \
Duration                                 : 2 h 1 min
' `! d: W  X; m7 mBit rate                                 : 18.9 kb/s
: |7 b3 u5 N+ ?% RCount of elements                        : 1752
. V: e* ~! _! Y. u/ RStream size                              : 16.4 MiB (0%)) R3 `3 r/ c# x6 Y
Title                                    : French-PGS5 l* F! ^  L- L( Q7 y
Language                                 : French
4 {4 F5 M- \' z6 X/ U; N# CDefault                                  : No) }! R3 B. B1 P8 \* ^
Forced                                   : No: w" w% d9 ]$ \# X) F, F$ w' ^! D8 p) s
: ]3 ~) K- j9 S$ ]5 e
Text #47 G9 |% N2 P9 M7 c) K. p
ID                                       : 89 h2 j* n/ @0 M8 l9 M$ ^9 s& \
Format                                   : PGS7 F0 d2 b4 v6 T5 s
Muxing mode                              : zlib
$ i  i9 u9 P5 W7 l% QCodec ID                                 : S_HDMV/PGS
8 K# _) I  _. x( [& ?Codec ID/Info                            : Picture based subtitle format used on BDs/HD-DVDs
3 x( w1 c" a8 p4 `: f4 o" ]Duration                                 : 2 h 3 min
5 j, G/ A7 ?6 F6 IBit rate                                 : 17.0 kb/s9 m/ `; M2 x5 @5 b  o
Count of elements                        : 1792" Q. U) R1 G) R& a4 K
Stream size                              : 15.0 MiB (0%)& v. Q: f* S1 A5 K
Title                                    : Spanish-PGS
2 t& [( k- N  L. h% v: t7 hLanguage                                 : Spanish; A# ~( L- _2 E2 g
Default                                  : No
6 a( K% Z  `: @( {Forced                                   : No
0 w6 Z- ?3 n4 [
" O7 |" r# c. C4 t5 w& ~* L% DMenu
! d, D9 L3 |+ V: M3 e. H! L00:00:00.000                             : en:Chapter 1) U* w$ e: k$ h, w: R
00:11:05.748                             : en:Chapter 2
# o+ T- q. w( b) v9 t" i00:16:09.135                             : en:Chapter 3
1 T! ~( N* M3 f: s$ \1 _00:19:16.322                             : en:Chapter 4
( o9 _2 C5 W5 D8 @: J3 }' |4 O00:25:27.651                             : en:Chapter 5
& I7 i/ y* }- a$ G00:35:52.233                             : en:Chapter 60 h9 C& x0 x5 H
00:39:50.179                             : en:Chapter 7. G# K% S, M8 X8 b3 r; N1 V; b$ e
00:46:35.459                             : en:Chapter 88 i/ t, u" e9 o& N7 @
00:52:41.867                             : en:Chapter 93 T3 I9 M+ M8 Z6 I/ ^
01:01:22.012                             : en:Chapter 10
4 E& P3 A7 j, W! P' |( `) H8 h01:08:59.802                             : en:Chapter 11# y1 y1 `4 r8 D1 D9 `
01:14:49.735                             : en:Chapter 12
7 _3 d  y2 y7 q2 c4 m% \  `01:19:23.926                             : en:Chapter 13
1 j; ~  b/ V2 U0 \0 j* f0 O01:24:46.540                             : en:Chapter 14) A' h1 @) f6 b& H
01:30:25.337                             : en:Chapter 15
" M( V* L9 y' I  P: q% [% w01:35:24.928                             : en:Chapter 16
' p8 ]3 V8 {: s7 N8 u  F" i: @! e5 y01:39:33.342                             : en:Chapter 176 l1 {2 Q% B; y$ Z, k
01:43:04.220                             : en:Chapter 18* ]- ?* ?% t9 }7 `8 V
01:48:54.695                             : en:Chapter 19" C8 o) {; [( O& `, D3 q
01:53:38.812                             : en:Chapter 20

- n: _/ u6 }9 ~: Y. N. d& s$ a; k
游客,查看本帖隐藏内容请回复 | 加入VIP贵宾可免积分免回复 了解详情 | 还不是会员:点击获取邀请码 Invitation Code

本版积分规则

小黑屋|Archiver|蓝光电影资源网

GMT+8, 2022-1-23 21:07

Copyright © 2001-2022, Tencent Cloud.

快速回复 返回顶部 返回列表