BluRayCD Forum

 找回密码
 立即注册【分享大片】
查看: 50|回复: 2
收起左侧

[科幻恐怖] 隐形人/隐形客/隐身人 The Invisible Man 2020 1080p BluRaycd x264 DTS-FGT 11.30GB & 15.87GB

[复制链接]

8396

主题

8775

帖子

8万

积分

Post Share

金币
19228 枚
体力
16895 点

卓越贡献勋章

mvods 发表于 2020-5-18 15:34:06 | 显示全部楼层 |阅读模式
02.jpg
. r5 K( z* I  X/ u# q) J8 ?. H0 P/ X0 {0 \) L3 Z. \# `) Q
◎译  名 隐形人/隐形客(港)/隐身人
6 r' V# C4 r' V5 c. ^; A◎片  名 The Invisible Man
, i- D* L# q5 |  E' ~# \◎年  代 2020- o. g/ E+ A2 n3 a( R" u, i& w& `+ a& y2 l
◎产  地 澳大利亚/美国/加拿大/英国
" R3 e* a. I& i◎类  别 科幻/惊悚/恐怖: [1 F: E& u1 {1 R* c1 U
◎语  言 英语
2 R  p; e/ ?, Y. J7 B, y◎上映日期 2020-02-28(美国)
, h7 h/ ~" B0 X# a◎IMDb评分 7.1/10 from 94,782 users
) A* {  N3 z2 j' i  w( }◎IMDb链接 https://www.imdb.com/title/tt1051906/
5 S2 P' g  I& W! w3 a8 }7 K  |( V◎豆瓣评分 7.3/10 from 114,302 users. K! f  a1 s( [# |+ T. U2 G$ Q  _' Z
◎豆瓣链接 https://movie.douban.com/subject/2364086/, p: L0 p( S& @
◎片  长 2 h 4 min
/ r. N; N& V7 \2 n3 W◎导  演 雷·沃纳尔 Leigh Whannell
4 k! G/ s. d1 u◎编  剧 雷·沃纳尔 Leigh Whannell " s( {0 Q" ~* H$ {
      赫伯特·乔治·威尔斯 H.G. Wells
; w* J# v+ h. M1 L8 g◎主  演 伊丽莎白·莫斯 Elisabeth Moss
$ F- [  j9 f1 k0 N) M: G; {      奥利弗·杰森-科恩 Oliver Jackson-Cohen
7 f+ f9 L) d6 Y& u+ H      阿尔迪斯·霍吉 Aldis Hodge
7 \/ [& v" @( D      迈克尔·多曼 Michael Dorman$ }% H1 y* O# D- ?7 T5 |4 ~, L
      斯托姆·瑞德 Storm Reid
. e, {6 S, l4 X' U$ d      本尼迪克·哈迪 Benedict Hardie
. A; D% n1 x  C8 Q      哈丽特·戴尔 Harriet Dyer) x/ U0 a+ b* l1 Q9 ~; D3 r9 G
      瑞妮·林 Renee Lim
8 U& a8 c/ _* v; K+ T      布莱恩·米根 Brian Meegan( M( E( i* w* u! ]1 \0 K) U) U* A
      薇薇安·格里尔 Vivienne Greer
) R) Y+ o+ U6 q  s" i      尼古拉斯·霍普 Nicholas Hope
9 A1 ?) \0 P. M$ _5 t) b      克利夫·威廉姆斯 Cleave Williams
. R6 h+ l# ]4 ]- }      萨姆·史密斯 Sam Smith
  K% C2 J/ E# J  J8 X: G      扎拉·迈克尔斯 Zara Michales( v  a4 l! d& ^
      纳许·埃哲顿 Nash Edgerton8 F, @0 H/ i( a$ k1 v
      安东尼·布兰登·黄 Anthony Brandon Wong
3 s, w, V7 {& y0 ^! ]  p6 ~      阿玛莉·沃德 Amali Ward
- i+ Q. z1 G+ b" A3 t1 q. V! y5 N      迈克尔·诺特 Michael Knott
7 U1 J3 p) {# r7 K- s  o8 |
) d- f0 L! L. ?& N' P; }2 B6 J: u◎标  签 惊悚 | 悬疑 | 恐怖 | 科幻 | 美国 | 犯罪 | 2020 | 剧情& G+ F$ w& x* C& Q! i, e' c' m
! z; n! w$ v/ |8 ?$ d! S0 M1 \9 D
◎简  介# x; Y; i# U  [; t- `. c* N; }

" [  I! ~2 Z* K7 J3 R2 g" m6 a  西西莉亚(伊丽莎白·莫斯 Elisabeth Moss 饰)再也想不到,曾经将自己迷得神魂颠倒的英俊男人阿德里安(奥利弗·杰森-科恩 Oliver Jackson-Cohen 饰),如今会成为噩梦的始作俑者。在和自己恋爱后没多久,阿德里安便开始对西西莉亚进行精神和肉体上的双重控制,终于,忍无可忍的西西莉亚在一天深夜用安定将阿德里安迷晕,成功的逃出了魔窟。
, ]6 m( }5 j# H, N. k
0 O! s$ E/ n0 n8 a% m  之后,西西莉亚震惊的收到了阿德里安自杀的消息了,她几乎不敢相信,这个魔头真的从自己的生活中彻彻底底的消失了。西西莉亚的疑虑并不是空穴来风,在她生活的角角落落中,似乎都有一个无形的影子在窥视着她,企图触碰她。
4 Z( f3 M% w- K$ [& }& K+ |( [, y% C2 y1 k
  When Cecilia's abusive ex takes his own life and leaves her his fortune, she suspects his death was a hoax. As a series of coincidences turn lethal, Cecilia works to prove that she is being hunted by someone nobody can see. ( [" C5 A2 l6 @( O' F
Video7 u; @' r# L7 J: n' U& C1 R
ID : 1
# y: q( ]3 B: c+ m6 K8 \# {Format : AVC8 F8 K; G' c# A& T  s* J3 w" i) X$ G
Format/Info : Advanced Video Codec. ]' F3 L& |9 B+ s
Format profile : High@L4.10 t# c' j3 q5 m9 M9 q
Format settings : CABAC / 4 Ref Frames9 b  [$ }* D- H; R# T) v
Format settings, CABAC : Yes0 N% R3 `" [- M4 [
Format settings, Reference frames : 4 frames
0 N% G4 n5 P# G8 \! XCodec ID : V_MPEG4/ISO/AVC
% g; B* g  X, c6 b7 r( ~' d. t8 N. EDuration : 2 h 4 min
2 H! B. Z+ l+ ~4 E' a% a, ^Bit rate : 11.5 Mb/s
% ?1 M! f: a0 L* C" F1 pWidth : 1 920 pixels
( Y, O' W5 f4 Z4 vHeight : 804 pixels
$ {, i" j: a; ?' _1 P( O% qDisplay aspect ratio : 2.40:1
- L, l% i" |+ B# q4 uFrame rate mode : Constant
3 L! k* a1 }; yFrame rate : 23.976 (24000/1001/189150) FPS
5 P' y- I2 k  h/ I* G1 u) i% y  RColor space : YUV8 e  @+ f$ k# s) A# ]
Chroma subsampling : 4:2:0
7 i* H  D: |4 i& SBit depth : 8 bits+ m+ V/ j2 Z* x, l# E
Scan type : Progressive* n2 w. Z- g; |) [6 T" p& i- G' w
Bits/(Pixel*Frame) : 0.3110 w- s# \8 Y# z; U  Q
Stream size : 9.99 GiB (88%)
$ U% X% ]  A0 q* NTitle : The.Invisible.Man.2020.1080p.BluRayCD.x264.DTS-FGT8 Z, c3 o8 h; P; m: q1 l6 U( i
Writing library : x264 core 148 r2748 97eaef2/ t- j' c3 Q7 N: r9 ?/ [# d
Encoding settings : cabac=1 / ref=4 / deblock=1:-2:-2 / analyse=0x3:0x113 / me=umh / subme=9 / psy=1 / psy_rd=1.00:0.15 / mixed_ref=1 / me_range=16 / chroma_me=1 / trellis=2 / 8x8dct=1 / cqm=0 / deadzone=21,11 / fast_pskip=1 / chroma_qp_offset=-3 / threads=72 / lookahead_threads=3 / sliced_threads=0 / nr=0 / decimate=1 / interlaced=0 / bluray_compat=0 / constrained_intra=0 / bframes=3 / b_pyramid=2 / b_adapt=1 / b_bias=0 / direct=3 / weightb=1 / open_gop=0 / weightp=2 / keyint=250 / keyint_min=25 / scenecut=40 / intra_refresh=0 / rc_lookahead=50 / rc=2pass / mbtree=1 / bitrate=11500 / ratetol=1.0 / qcomp=0.60 / qpmin=0 / qpmax=69 / qpstep=4 / cplxblur=20.0 / qblur=0.5 / vbv_maxrate=31250 / vbv_bufsize=31250 / nal_hrd=none / filler=0 / ip_ratio=1.40 / aq=1:1.00  U- P2 x" Y. v% X
Language : English: X' H( w- `) P/ Z2 R3 x
Default : Yes
. k  Z' o" Q8 ~! o2 NForced : No7 ]0 `3 u; x& k) R# \  R2 }9 C  L
# ~6 m5 D( ~2 H5 g9 A
Audio) C! `- a  R. M
ID : 2
) }4 f0 ?! \5 b' G8 i/ I  qFormat : DTS
8 B3 G  D) B- s$ y) H  YFormat/Info : Digital Theater Systems% e; @! m9 r( R
Codec ID : A_DTS
% t9 q: C. R. j/ fDuration : 2 h 4 min
6 Z9 O7 P) Z1 L* _# w3 `Bit rate mode : Constant3 f# K! `* u; b  g
Bit rate : 1 509 kb/s
# F4 \! M6 n' z8 U- WChannel(s) : 6 channels( g* O& }& B/ W5 t9 X) n
Channel layout : C L R Ls Rs LFE' |: {/ u& f# y' B: |
Sampling rate : 48.0 kHz9 {; t8 N" m9 I6 T
Frame rate : 93.750 FPS (512 SPF)
4 J$ m$ ^( K6 n* {* BBit depth : 24 bits( I; J+ T+ G- J! T. p2 j  B6 E0 ?  n
Compression mode : Lossy
$ ~& K. x( [  @! V2 }" U. r6 eStream size : 1.31 GiB (12%)
- Y3 R& x+ Y& U: T! r; STitle : The.Invisible.Man.2020.1080p.BluRaycd.x264.DTS-FGT
8 q. l6 H% H4 c1 \7 Q  kLanguage : English4 j9 _# Y, r4 N' N' _$ ]7 y5 n
Default : Yes9 c" y1 U3 ]0 v7 Y0 T
Forced : No, T9 \+ B3 J7 l) k( I8 W
/ J6 I! o/ A- A% u/ ]
Text #1
& X( X: j! `2 `; {( LID : 3
3 R( A8 Q8 j, E( b* z- JFormat : UTF-8+ _2 x. r- e7 Y* Y, V3 T, b2 w
Codec ID : S_TEXT/UTF8
- s* ~  W7 @# |2 B$ b3 u( T+ n2 D' kCodec ID/Info : UTF-8 Plain Text
& q& O3 A: V$ q4 k3 Z; R4 ZDuration : 1 h 49 min
% N- m( T9 [( E& t+ A3 hBit rate : 31 b/s8 E' q3 p) z9 i; ^; k
Count of elements : 863
3 z' I9 I( w8 t. G" X- [Stream size : 25.5 KiB (0%)
, t! z9 b! x* G# u6 R  Z" k  p$ J. fLanguage : English0 ~( E8 y6 q' M/ n
Default : Yes  [+ z: J) ]$ w+ }' Q" y$ ?( A
Forced : No; J- S! c- k+ e6 V: L6 v

2 a6 _& v  \/ Z1 ]. x; h) M' l" mText #2
0 B0 s0 {2 M3 X' VID : 4
( S+ ?  C# ~$ f' D" Y$ T6 f4 CFormat : UTF-88 b) y" G6 d. }& n7 K- Q/ E; d8 Y
Codec ID : S_TEXT/UTF8
6 ]& l7 f( [! Y* ~Codec ID/Info : UTF-8 Plain Text) B6 i& g6 d" i& |; z- H5 Y4 ]
Duration : 1 h 50 min/ c5 @+ `0 M# H" i$ A; T" l
Bit rate : 35 b/s' t/ |5 n) h2 B
Count of elements : 1045# d' C3 j  K) ]$ J! G& L
Stream size : 28.9 KiB (0%)
8 K4 a* Y9 f  R: L' I& [+ @Title : SDH
4 X" B+ r! A( K  ILanguage : English$ ^& D1 N" n5 a. i; {
Default : No( [8 t9 j- A. l5 I$ z8 K* d
Forced : No
" N) P$ n) y, i
( X7 i+ d8 ~/ L! X6 qMenu; N* [* c5 z  X8 z
00:00:00.000 : en:Chapter 01" l3 k2 F! B3 m! c( H& o, t6 N
00:11:05.456 : en:Chapter 02& ^; M4 x) @; ~5 f
00:16:08.968 : en:Chapter 03# X* j* j8 n) o
00:19:16.321 : en:Chapter 04
  ?/ y. m1 h& C$ D) q00:25:27.651 : en:Chapter 05
; }# P) o) I$ F& g1 I00:35:52.233 : en:Chapter 061 h  `" E4 O" e. M
00:39:50.179 : en:Chapter 07* @: U" }5 z: k
00:46:35.459 : en:Chapter 08
4 p8 a% b  J: m/ h' T/ j00:52:41.867 : en:Chapter 09
7 }/ x3 `, E5 D+ Q2 `01:01:22.011 : en:Chapter 10
& v5 g0 l/ i1 @- E5 C01:08:59.802 : en:Chapter 110 f1 f5 B0 [( g& W1 ~
01:14:49.735 : en:Chapter 12! G9 R1 l5 S" [, J+ z- h
01:19:23.925 : en:Chapter 13
5 `7 p3 ]* [  Z9 P01:24:46.539 : en:Chapter 14: s% d1 E8 a6 m1 d+ Z
01:30:25.336 : en:Chapter 15, X% G0 P( u) ^
01:35:24.927 : en:Chapter 16
+ {# b: D: o( T- c0 B01:39:33.342 : en:Chapter 17- J% X7 Q: m# r  P, d* ^; J
01:43:04.178 : en:Chapter 18% I# w8 U) v, t3 h0 K
01:48:54.694 : en:Chapter 19
3 Q5 k- b( |' {6 y3 H  F; ~( u01:53:38.603 : en:Chapter 20
Video
" u1 n- _1 e" N. u- }; DID : 1! X2 {% Y# W3 U, J2 G  v
Format : AVC: d( Y4 v- \& `, |0 G( _
Format/Info : Advanced Video Codec. }+ ]+ {1 G  _6 k* {& G0 I4 a5 J
Format profile : High@L4.1
3 u/ B' \  e  U6 z6 q  fFormat settings : CABAC / 5 Ref Frames
$ x8 {( E( e7 x3 EFormat settings, CABAC : Yes+ l/ ~, U+ y& v  ?) I; J0 ]0 d8 t; x
Format settings, Reference frames : 5 frames
; ^0 ]9 u8 Y; }  yCodec ID : V_MPEG4/ISO/AVC
" O+ L6 K( O8 R  u% ~Duration : 2 h 4 min
& m$ `5 V; `4 p% N. MBit rate : 14.6 Mb/s
! N8 U4 L" p3 [  lWidth : 1 920 pixels
& n) |$ H# X. }8 I: ~Height : 804 pixels
! S+ \- D% C! E7 z; QDisplay aspect ratio : 2.40:1
/ S2 a% o0 o- t( N3 y0 Z/ uFrame rate mode : Constant
* ?, Y3 b! s  w6 g0 V! s* m2 y4 UFrame rate : 23.976 (24000/1001/189150) FPS* B  C% ?! v$ c; W. H, x
Color space : YUV/ J; o) U0 M1 L1 g: t- g+ U: L, s( m
Chroma subsampling : 4:2:0
" m  I2 o% F( Q$ e1 K- v4 bBit depth : 8 bits9 w# H. W8 H* H9 W
Scan type : Progressive
& `, l! Q( Q- y( J7 ?6 [* {Bits/(Pixel*Frame) : 0.393: w2 q4 e$ H  F8 ~$ L  [+ Y6 C
Stream size : 12.6 GiB (80%)# ]& I! O& F- S9 B! o& I$ Z. O5 Z) V
Writing library : x264 core 160 r3000 33f9e146 O$ a' k1 M: k, S7 A& n6 T
Encoding settings : cabac=1 / ref=5 / deblock=1:-3:-3 / analyse=0x3:0x133 / me=umh / subme=10 / psy=1 / psy_rd=1.00:0.00 / mixed_ref=1 / me_range=32 / chroma_me=1 / trellis=2 / 8x8dct=1 / cqm=0 / deadzone=21,11 / fast_pskip=0 / chroma_qp_offset=-2 / threads=16 / lookahead_threads=4 / sliced_threads=0 / nr=0 / decimate=0 / interlaced=0 / bluray_compat=0 / constrained_intra=0 / bframes=10 / b_pyramid=2 / b_adapt=2 / b_bias=0 / direct=3 / weightb=1 / open_gop=0 / weightp=2 / keyint=250 / keyint_min=23 / scenecut=40 / intra_refresh=0 / rc_lookahead=150 / rc=crf / mbtree=0 / crf=15.9 / qcomp=0.60 / qpmin=0 / qpmax=69 / qpstep=4 / vbv_maxrate=62500 / vbv_bufsize=78125 / crf_max=0.0 / nal_hrd=none / filler=0 / ip_ratio=1.30 / pb_ratio=1.20 / aq=3:0.80
( b1 u8 R6 o; TLanguage : English
" q7 K6 y% w; ^; `  TDefault : Yes
0 a2 I* o; O( g  `Forced : No3 W  x& K3 r  d/ |* b, b; R
Color range : Limited4 |. ~7 m# i& X6 n. j
Matrix coefficients : BT.7096 c+ M) F" E- ]1 T

( v- }; l( z0 d: B  F) B5 W, Z: K# P7 wAudio #1
+ J, L: C6 g: Z" t7 B; a6 yID : 2
! L2 ~' h/ g) u6 H$ e* }: D/ k! KFormat : MLP FBA 16-ch
( G* z( t; V6 f6 f9 hFormat/Info : Meridian Lossless Packing FBA with 16-channel presentation
' z% l$ ~, _$ ^4 mCommercial name : Dolby TrueHD with Dolby Atmos% K4 O2 Q# v2 ~6 Y
Codec ID : A_TRUEHD% r; O6 \: K* G1 a" E1 A7 c
Duration : 2 h 4 min# x4 \7 l+ G$ t3 u4 h8 f2 n
Bit rate mode : Variable
9 d& ^4 H; o* ]& z4 v- j$ V% T% UBit rate : 3 050 kb/s
5 @$ ^, o+ j! l9 x7 UMaximum bit rate : 5 652 kb/s/ \% T0 c) `( Y  Y4 v$ \& K0 C
Channel(s) : 8 channels
: ~2 ?& W: K/ F! S/ QChannel layout : L R C LFE Ls Rs Lb Rb
$ ]/ O) ]- q9 |& K+ `* SSampling rate : 48.0 kHz  ]( A- W0 `/ C0 x
Frame rate : 1 200.000 FPS (40 SPF)
) s/ T* n! n1 XCompression mode : Lossless* e4 K8 `* r6 a. B- s
Stream size : 2.65 GiB (17%)
( K, a+ Q  j: g& I  @! l2 R  MTitle : English
/ `+ k, y4 P- c( P% A+ S! q5 ]Language : English
+ \. g; A" x" ]. ]( ~/ eDefault : Yes8 }! Y1 ~) l# {
Forced : No2 i: r3 h! o: |. E( v: s9 Y
Number of dynamic objects : 110 |4 T9 S8 y# Y& D# P+ x
Bed channel count : 1 channel& @* c% y, {- b/ x
Bed channel configuration : LFE+ e' O4 Z' G8 \& X5 r3 `: ]- v
+ G' y: D4 M# q5 c" ~
Audio #2
) m; R' C& q* ]: s8 U9 o. bID : 3
  E- i. r- N5 j+ G7 b2 GFormat : AC-33 O6 {' e5 R9 g1 q+ U  w% T
Format/Info : Audio Coding 3$ o6 _2 `, c, g& Z6 F1 t/ ~5 `
Commercial name : Dolby Digital5 q( K% f/ c& M) {1 t( u( R
Codec ID : A_AC3
2 f1 `9 e/ F5 x  I7 iDuration : 2 h 4 min* R  A( {& N- J" P
Bit rate mode : Constant
2 @$ z2 ^! K5 d+ ?( W% w& B5 {Bit rate : 448 kb/s! [* F7 |/ P% I. r$ X' r4 b; a
Channel(s) : 6 channels7 Q( r: X" L' F& q$ j% V, f
Channel layout : L R C LFE Ls Rs2 e7 `  _6 E1 y4 x
Sampling rate : 48.0 kHz
* d" p& h% K* r1 bFrame rate : 31.250 FPS (1536 SPF)* w; P4 z! a; i& N0 G" x/ X
Bit depth : 16 bits
' ^  m5 G1 C) f' e; w' F' z" D$ eCompression mode : Lossy
4 f/ H1 I0 _. b* Z) h5 u9 ]( [$ e# rStream size : 399 MiB (2%)4 B3 r8 Q" w3 k1 F4 r' }
Title : English6 p: U0 {% ^% q8 E3 \
Language : English
4 {: b3 b( k3 C+ |* ~Service kind : Complete Main
% `$ y- `* w% N" {Default : No" s" ^8 R6 R1 ?
Forced : No- x6 C) l& c5 Q7 o

4 W1 v( P; v- @0 h6 P: Y7 l/ |Audio #3
0 t1 ~# q! c% t& s0 h7 kID : 4* H3 R0 j9 q- _% E
Format : AAC LC
2 \: v- ^: Q$ \* H4 ^Format/Info : Advanced Audio Codec Low Complexity" q7 [0 |3 c2 C) O* j4 r
Codec ID : A_AAC-25 Y/ y7 z/ x4 W# R" B
Duration : 2 h 4 min3 {0 [9 E( O0 P. h% m) V% |9 m$ {
Bit rate : 128 kb/s  [4 t% F6 ^" J! N! l2 h
Channel(s) : 2 channels
  ]" f  h% V, H; n& aChannel layout : L R- A# f* y1 C: u- C9 `* Y- J
Sampling rate : 48.0 kHz
, k+ M/ T; \# k6 R) C& @Frame rate : 46.875 FPS (1024 SPF). `7 Z0 z8 e; V1 G5 A; I9 y
Compression mode : Lossy
+ f  A" H$ J: g9 F. I5 a6 ]- O# VDelay relative to video : 9 ms
6 c. p6 C# b3 X' r& l: P* WStream size : 114 MiB (1%)
+ j6 K, r  b1 ~& a' a# J$ c; vTitle : Commentary With Writer/Director Leigh Whannell
# L% J; v- s; _4 I# q6 pLanguage : English5 v' C# s: q2 f8 a
Default : No
3 u+ V# I: l. L% [1 ]Forced : No
! f8 |3 T$ t8 T! ~# Y0 V5 `: z4 [
' X9 Y7 P- x* zText #1
" J0 N9 `1 s+ l' k4 ?ID : 5
- T' `( R6 A! U) C, o+ e% tFormat : PGS
- p% ?0 Y5 M" ]* OMuxing mode : zlib2 z4 ^' n0 y7 y$ x+ m
Codec ID : S_HDMV/PGS: a( l) ~8 A0 t3 D5 h2 A
Codec ID/Info : Picture based subtitle format used on BDs/HD-DVDs3 A4 q- t7 i8 ]* f
Duration : 1 h 50 min! {7 a% t; x1 i" P3 }8 n8 r6 H
Bit rate : 24.9 kb/s
3 A* Q% u4 d0 Q; }/ [- Y$ q2 b. LCount of elements : 2096: U) N5 [5 J& W( L
Stream size : 19.6 MiB (0%)
: q% Y. H+ M: }5 gLanguage : English% P5 J  I. Z: H% A/ o' n
Default : No
$ U. |0 }% ^. i) }' R8 EForced : No+ x1 L! m5 K+ W" w$ Z
" Q4 }6 F( [. {. D; T) O7 Z
Text #28 y) ?  f7 N+ G( d( u' d
ID : 6* C7 B5 S- i$ h. O0 @
Format : PGS
0 [; x+ E7 m! o; I+ x/ W1 rMuxing mode : zlib
, T  ~- n2 b5 l2 [9 B$ UCodec ID : S_HDMV/PGS
/ t$ g+ ^) K8 {$ O% TCodec ID/Info : Picture based subtitle format used on BDs/HD-DVDs& B8 f( g+ Q6 Z! t9 P3 M
Duration : 2 h 3 min
2 ^6 k- o# z+ ABit rate : 17.0 kb/s& u0 l$ l2 m, c7 m8 d. M
Count of elements : 1792
  b3 u% m: B. h/ T5 QStream size : 15.0 MiB (0%)
7 B) n( Y1 X' r) K2 Q9 o9 dLanguage : Spanish& i. l2 M7 X. }# @, e* q3 Z- }
Default : No
) d) w5 p) b- s% _: kForced : No
# ~% M5 b0 i) L  e& G4 O8 T) ]0 n; J6 w5 s0 ?6 |
Text #32 Q+ L5 z4 n) [+ _8 {  p
ID : 78 m/ i$ T, v3 O: T# r2 g
Format : PGS
8 |8 S; Y8 \# R% ]9 UMuxing mode : zlib
) v, T+ Q) q& M* z$ [: @" W1 KCodec ID : S_HDMV/PGS
5 b! b% J9 y# t- g; `  e% M6 a' L# M1 yCodec ID/Info : Picture based subtitle format used on BDs/HD-DVDs; H2 m; u# d+ Z  m$ Q  [
Duration : 2 h 1 min% q: [0 K: ~6 A- a
Bit rate : 19.0 kb/s
% [% G( g- S# e6 g% HCount of elements : 17526 I, z/ {  q) }' C
Stream size : 16.5 MiB (0%)
1 u( l; D: T% W5 o8 H7 u( O9 M2 X/ QLanguage : French
" v( K8 N; D% }4 w. [8 yDefault : No
) K7 O2 m* l7 |0 K3 R# x3 Q4 Q9 A, TForced : No
7 D% h* \: v/ C. l) Z: E; d/ K* r: v* d  v7 S% t9 G
Text #4; m- }: Z/ F) N7 n8 ~* @: {
ID : 8
+ F# L8 t; r  v8 ~Format : PGS
* L' n+ @& |8 i9 R9 OMuxing mode : zlib
7 U$ K1 [# o- S* h- aCodec ID : S_HDMV/PGS* e( F/ {! a+ b
Codec ID/Info : Picture based subtitle format used on BDs/HD-DVDs% c, x+ T8 O6 K6 D  \; a$ P( Q/ }" ~
Duration : 2 h 3 min
& N/ L- J' j% J9 J' }0 r7 ?+ MBit rate : 620 b/s
$ F3 ~; Q5 h3 G; sCount of elements : 52; Q- M4 ~% W, D0 A, [
Stream size : 559 KiB (0%)7 T  _$ y0 L/ e' M
Language : Spanish
  Q9 }5 W5 b/ r$ k; r  XDefault : No
& Y; D, I7 D2 JForced : No5 ?' |) o3 R1 ?. X
2 x, l& Q( q; B! U; I
Text #5
5 h$ j" V+ X# [7 P" z* h8 RID : 9
# i5 p% d# _) h4 cFormat : PGS
/ a4 p0 `& L8 jMuxing mode : zlib
8 o  m1 z1 x3 F7 g" o( ]Codec ID : S_HDMV/PGS7 q0 S9 C% o1 G; b8 q0 W) _# s0 W; G
Codec ID/Info : Picture based subtitle format used on BDs/HD-DVDs
1 N1 \' j2 M$ w* sDuration : 2 h 1 min( h: u% P/ T0 F6 C- ~
Bit rate : 671 b/s5 {7 _& q8 ?* @' x: v* G& V/ B5 S( y
Count of elements : 44& C' W" F( ?8 M" _+ C2 J- D% Y! l! h
Stream size : 598 KiB (0%)9 t% _& ]8 G! ]  v* L
Language : French
4 t( \2 ]2 k- e5 s, o9 |Default : No
" t+ A5 ?/ S2 ]3 [) E) F# aForced : No+ O2 K$ ~7 `# T+ Y  k6 z
5 k: r3 ~  A  f6 R
Menu
" X  e( R! c+ Y! D00:00:00.000 : en:Chapter 01
: ?( [$ ]5 I( U1 U: H, h( R00:11:05.748 : en:Chapter 02: J( h7 t4 I- ?
00:16:09.135 : en:Chapter 03( L$ w/ O, ^, `# T: u, i
00:19:16.322 : en:Chapter 04
' c1 z! A) H7 F- N00:25:27.651 : en:Chapter 05" m: q2 I& J$ S# E
00:35:52.233 : en:Chapter 060 x" S% i9 X8 @" b- q$ G; D4 H
00:39:50.179 : en:Chapter 070 e( M# {) {7 F+ g& ^
00:46:35.459 : en:Chapter 08
( A, h- e/ \. e* ~" B' ~0 {4 @: N00:52:41.867 : en:Chapter 09  D4 i" p: G# a6 _
01:01:22.012 : en:Chapter 10
$ y( b: \( R  v& W01:08:59.802 : en:Chapter 11
$ q- j. k9 v% A0 v' p" V01:14:49.735 : en:Chapter 12
6 G. ?% Y5 c, y1 J01:19:23.926 : en:Chapter 13
7 b# t) p- k' _& D2 R7 [. s01:24:46.540 : en:Chapter 14
# ~; o3 ~* x; Y$ V% k01:30:25.337 : en:Chapter 15" m* M0 t% l3 Z0 L5 g: N- }
01:35:24.928 : en:Chapter 16
0 ?9 p4 g! |1 R7 y& @01:39:33.342 : en:Chapter 17  |7 u8 O! |$ H, u' S! p9 E
01:43:04.220 : en:Chapter 18
% o# U6 F6 @. I+ P9 B0 i5 h  w01:48:54.695 : en:Chapter 19
6 Q& L: f7 c4 c2 y01:53:38.812 : en:Chapter 20- X* T+ {$ U: k. ^  Q4 k

- a% r. B- l* |The.Invisible.Man.2020.1080p.BluRaycd.x264-YOL0W
  B/ k& N& ~9 }8 O: L/ `+ H% C- g! c: M6 ?
Date........: Fri 05/15/2020  G; v2 j" n; J
Source......: BluRay$ A. p  x9 i1 a9 A( w
Runtime.....: 02:04:23.156
  A9 j) S" Y; O3 m4 Y) c' I
" E: a# ]" x* ^1 uVideo.......: x264 @ CRF 15.9
! Z' `+ M% B$ ^$ o7 b: o4 w/ [Resolution..: 1920x804 2.40:1% U3 I; e( R( s
Bitrate.....: 14555 Kb/s
. z* k$ D4 t0 ~# |9 n. A" h4 fFPS.........: 23.976
  g' A2 E* [* K) D, g9 J+ DSource......: 27660 Kb/s
5 C1 R/ r/ P5 P% Y" P) E+ L1 f- L" n) F3 s2 f
Audio.......: English TrueHD Atmos 7.1 / AC3 448 kb/s 5.1! Z- v8 h) ^3 h! |! k' E
Commentary With Writer/Director Leigh Whannell AAC 2.02 J3 o. ~, Z9 C: q7 }

  v' z2 c5 U- j  jSubtitles...: English Spanish French) x" a5 L, N  U# `
8 x, E3 F- U4 R" b3 Z& R
Size........: 16254 MB7 V$ A, [) V$ f3 z, }" Y

) M# h, c9 p+ P; @3 ILink........: https://www.imdb.com/title/tt1051906/
/ k! A" K" i' E  u. S4 fNote........: Fuck 720p
( y1 Q- O' Q& n! i6 a9 e
游客,查看本帖隐藏内容请回复 | 加入VIP贵宾可免积分免回复 了解详情 | 还不是会员:点击获取邀请码 Invitation Code

2

主题

716

帖子

3317

积分

Sponsor

金币
584 枚
体力
1378 点
tto138 发表于 2020-5-24 19:18:26 | 显示全部楼层
沙发是抢的而不是占的!1 ^- c- }# K6 ^( a/ A7 d
In fact, I have always felt that the landlord of good taste! Ha ha!
0 E0 n8 _, A9 V! x' Q0 v* @7 O

0

主题

49

帖子

316

积分

Sponsor

金币
69 枚
体力
146 点
jqguan 发表于 2021-5-31 17:49:12 | 显示全部楼层
好好学习天天向上

本版积分规则

小黑屋|Archiver|蓝光电影资源网

GMT+8, 2022-1-23 21:25

Copyright © 2001-2022, Tencent Cloud.

快速回复 返回顶部 返回列表