BluRayCD Forum

 找回密码
 立即注册【分享大片】
查看: 85|回复: 2
收起左侧

[科幻恐怖] 隐形人/隐形客/隐身人 The Invisible Man 2020 1080p BluRaycd x264 DTS-FGT 11.30GB & 15.87GB

[复制链接]

1万

主题

1万

帖子

12万

积分

Post Share

金币
24004 枚
体力
24794 点

卓越贡献勋章

mvods 发表于 2020-5-18 15:34:06 | 显示全部楼层 |阅读模式
02.jpg
& t2 E' ?4 Z$ ^
' H* _" k: j* f2 z% `* `  G◎译  名 隐形人/隐形客(港)/隐身人
% P9 ]  u- A! o◎片  名 The Invisible Man' R' ]+ f8 X/ @# g/ g8 |
◎年  代 2020$ w4 @* X- w& y
◎产  地 澳大利亚/美国/加拿大/英国# ^# l, _* R4 e0 X# P3 i: [
◎类  别 科幻/惊悚/恐怖
* g+ n  g1 D4 a; W0 P◎语  言 英语( X" o* P' B& [, f& W$ y
◎上映日期 2020-02-28(美国)) z+ j, T5 k4 [# v( t' [( F
◎IMDb评分 7.1/10 from 94,782 users
  C! m$ P, s3 j0 e* v◎IMDb链接 https://www.imdb.com/title/tt1051906/! E* U7 L2 [# p9 |/ ?4 K; Y
◎豆瓣评分 7.3/10 from 114,302 users- b5 N" n; H, m/ R3 t% C
◎豆瓣链接 https://movie.douban.com/subject/2364086/
) x6 D8 }7 x# E) k; D& K+ D◎片  长 2 h 4 min
7 F3 e5 O! g* Y2 o6 @◎导  演 雷·沃纳尔 Leigh Whannell
( O' b9 ~  j! }5 T  M* b◎编  剧 雷·沃纳尔 Leigh Whannell + ~& s: P& j( x5 l# x, e: A
      赫伯特·乔治·威尔斯 H.G. Wells, B2 z: E& k8 p+ X9 R
◎主  演 伊丽莎白·莫斯 Elisabeth Moss
1 M/ \; L- }3 j- R# b      奥利弗·杰森-科恩 Oliver Jackson-Cohen
6 J: w$ R6 h1 w      阿尔迪斯·霍吉 Aldis Hodge# x3 O) `4 N& [) d% ]# B
      迈克尔·多曼 Michael Dorman5 I' a7 f2 q: k6 g; @4 f- Z
      斯托姆·瑞德 Storm Reid. u* J. m! W. q  R( \: |# c
      本尼迪克·哈迪 Benedict Hardie7 m) `& T" y/ Y$ n! U- m* B
      哈丽特·戴尔 Harriet Dyer" b/ @2 J+ a5 D0 c
      瑞妮·林 Renee Lim2 a* Q5 v0 R, {( n
      布莱恩·米根 Brian Meegan
1 t6 v* F% p# z+ u, F8 |0 x9 y3 [% @      薇薇安·格里尔 Vivienne Greer
4 O7 D# e& i! ]$ l+ \8 b      尼古拉斯·霍普 Nicholas Hope
) f9 Y) p2 b7 g( I/ ^      克利夫·威廉姆斯 Cleave Williams
: n8 B1 R! s- v8 R      萨姆·史密斯 Sam Smith! I* Z" j1 J5 L" t$ q
      扎拉·迈克尔斯 Zara Michales7 d  L$ M' d. m" w, P- A5 f
      纳许·埃哲顿 Nash Edgerton& d5 _5 Z! R) Q: Y
      安东尼·布兰登·黄 Anthony Brandon Wong  s. |5 ]' A' }( L: I: E' ]; f
      阿玛莉·沃德 Amali Ward
1 V8 ^) @' |4 i' m) D7 U4 [      迈克尔·诺特 Michael Knott( `$ [8 w8 O9 n% T! x

* h+ O* N5 R/ A% _0 n◎标  签 惊悚 | 悬疑 | 恐怖 | 科幻 | 美国 | 犯罪 | 2020 | 剧情- }! K. f' R+ k6 Z5 }/ `

$ r+ O) u, P. e, u0 [* U◎简  介1 H3 w( d( _* N! j
6 n' f3 j2 D# |$ I$ v" }
  西西莉亚(伊丽莎白·莫斯 Elisabeth Moss 饰)再也想不到,曾经将自己迷得神魂颠倒的英俊男人阿德里安(奥利弗·杰森-科恩 Oliver Jackson-Cohen 饰),如今会成为噩梦的始作俑者。在和自己恋爱后没多久,阿德里安便开始对西西莉亚进行精神和肉体上的双重控制,终于,忍无可忍的西西莉亚在一天深夜用安定将阿德里安迷晕,成功的逃出了魔窟。
( j  q" U, C4 v$ o+ ^, ~' Q
$ k% z4 {, G% Z+ Z  之后,西西莉亚震惊的收到了阿德里安自杀的消息了,她几乎不敢相信,这个魔头真的从自己的生活中彻彻底底的消失了。西西莉亚的疑虑并不是空穴来风,在她生活的角角落落中,似乎都有一个无形的影子在窥视着她,企图触碰她。
* U3 Q- Q/ O) ~0 n5 a7 H0 P
5 k& g1 O6 q# g  When Cecilia's abusive ex takes his own life and leaves her his fortune, she suspects his death was a hoax. As a series of coincidences turn lethal, Cecilia works to prove that she is being hunted by someone nobody can see.
$ w( v# E" ?+ w8 C; @
Video
- C- _# k8 j+ ]  ]8 zID : 1
$ Q, j- f9 b$ w( AFormat : AVC
/ I# O' p# l9 j  i3 gFormat/Info : Advanced Video Codec
  Q7 ?* Y/ ~/ B3 ^6 b% T9 I4 D8 UFormat profile : High@L4.1
. s  C, y! e) k. O3 O) f) aFormat settings : CABAC / 4 Ref Frames
9 T1 c3 _4 h7 E/ ?Format settings, CABAC : Yes
: X" N! \  V; w! k; E4 m) Y0 ?Format settings, Reference frames : 4 frames$ N. z" b# ~3 R4 G' p+ o
Codec ID : V_MPEG4/ISO/AVC$ N3 ^/ b: I# w' I1 k% g' C4 |1 y
Duration : 2 h 4 min2 b4 O4 p) a" |; R4 H6 e% w! a
Bit rate : 11.5 Mb/s. @% e9 ~7 h  H: K  [/ ~; c, w. f
Width : 1 920 pixels
' U" E7 o( Z* f( DHeight : 804 pixels
3 ]8 f: F4 m- A0 T4 n' x  dDisplay aspect ratio : 2.40:1  R1 H) R. ?* V) G
Frame rate mode : Constant
; C3 d) m( D) P' F  @Frame rate : 23.976 (24000/1001/189150) FPS
2 j& z) v' i  S9 C* DColor space : YUV+ A& h% P- o4 U5 M3 _( W, O
Chroma subsampling : 4:2:0
' _$ q5 M0 g6 HBit depth : 8 bits
6 K3 {! q) p5 U8 |& SScan type : Progressive6 T- X% d( o6 C1 W( G% M! n
Bits/(Pixel*Frame) : 0.311
  i* O  \  {+ }# iStream size : 9.99 GiB (88%)! |3 b+ a1 q3 t* {3 B6 T/ s
Title : The.Invisible.Man.2020.1080p.BluRayCD.x264.DTS-FGT
; A. i: `" m6 |5 ]+ Z- y3 I. sWriting library : x264 core 148 r2748 97eaef2% A* r( E, w3 o2 K- C7 k
Encoding settings : cabac=1 / ref=4 / deblock=1:-2:-2 / analyse=0x3:0x113 / me=umh / subme=9 / psy=1 / psy_rd=1.00:0.15 / mixed_ref=1 / me_range=16 / chroma_me=1 / trellis=2 / 8x8dct=1 / cqm=0 / deadzone=21,11 / fast_pskip=1 / chroma_qp_offset=-3 / threads=72 / lookahead_threads=3 / sliced_threads=0 / nr=0 / decimate=1 / interlaced=0 / bluray_compat=0 / constrained_intra=0 / bframes=3 / b_pyramid=2 / b_adapt=1 / b_bias=0 / direct=3 / weightb=1 / open_gop=0 / weightp=2 / keyint=250 / keyint_min=25 / scenecut=40 / intra_refresh=0 / rc_lookahead=50 / rc=2pass / mbtree=1 / bitrate=11500 / ratetol=1.0 / qcomp=0.60 / qpmin=0 / qpmax=69 / qpstep=4 / cplxblur=20.0 / qblur=0.5 / vbv_maxrate=31250 / vbv_bufsize=31250 / nal_hrd=none / filler=0 / ip_ratio=1.40 / aq=1:1.00- b3 z4 h. @, r5 |7 @# A5 j$ |) L
Language : English7 a( d( G7 q3 G3 y' Z& n0 p" b
Default : Yes
  N7 l4 P$ E  a; e5 eForced : No- E# G1 m. C+ G1 U

5 W7 n& S; O5 `) n( P' x0 v- sAudio
! q2 U7 T) U  I$ q. s0 C1 IID : 2! x3 L; \# N9 |
Format : DTS$ L0 p: h2 k! @! E
Format/Info : Digital Theater Systems; q0 B; ^+ f' l" x! l/ l% _
Codec ID : A_DTS3 w4 `8 v, K0 C1 \  y0 q
Duration : 2 h 4 min5 l4 v4 }) B  _) m
Bit rate mode : Constant3 Q4 b9 s2 q" _# U" n2 [
Bit rate : 1 509 kb/s
' W6 s3 @+ F! l" \; X/ ]1 bChannel(s) : 6 channels
. z  Y9 T/ z+ zChannel layout : C L R Ls Rs LFE
* G+ I9 i* N% R9 J9 ~' tSampling rate : 48.0 kHz$ a7 a7 f8 x0 x7 l8 ^
Frame rate : 93.750 FPS (512 SPF)
) M# n5 w" L* y$ h+ d3 fBit depth : 24 bits4 t, _. f2 y- o5 R
Compression mode : Lossy3 _: I7 L, y& W2 r% ~
Stream size : 1.31 GiB (12%)2 C; }0 h4 G5 k6 l0 u3 s0 y
Title : The.Invisible.Man.2020.1080p.BluRaycd.x264.DTS-FGT
) q: D8 Q7 T3 C, N1 H& V* h8 ~1 YLanguage : English
0 W; {* ?! l- u# E0 g0 dDefault : Yes! s3 R0 Q2 c8 d+ a3 b2 l
Forced : No% }: u  e# C* m

( \) r. |* \4 u% g9 ^% F2 C5 zText #1( u" m$ |8 z: I7 E) F
ID : 3" O* s) z( D- n
Format : UTF-85 f" v: ^' @8 C
Codec ID : S_TEXT/UTF8
, s4 F, I* n. g9 ~9 A1 n9 ^Codec ID/Info : UTF-8 Plain Text; I2 W# a) X% i7 x( |: t
Duration : 1 h 49 min
3 ~1 C2 i3 \, l4 y& J+ [Bit rate : 31 b/s& \/ h$ S# A6 ~. B* l+ U+ {
Count of elements : 8637 }9 x$ b% u3 l3 o  n" `9 @/ x; J/ e
Stream size : 25.5 KiB (0%)& y" v' j7 i* O' R: g
Language : English9 X* t; H; S. ?: W  u' b& l
Default : Yes% |- ?1 s: W0 W
Forced : No1 F5 T! z, W, @$ z! l# T

; _: A3 m# n3 P5 M( NText #2
. Q, |9 u/ X) EID : 4
+ H3 y' B1 b$ P' Q' D1 u+ xFormat : UTF-8: S0 P1 `0 P0 O
Codec ID : S_TEXT/UTF8- @: ]1 }* x+ K. p: _
Codec ID/Info : UTF-8 Plain Text! D$ i0 Q1 ?3 v; T! r4 \) C: ^- J3 s
Duration : 1 h 50 min
: l5 P, V5 A4 W* w" \Bit rate : 35 b/s" `* i) q% l# n$ g8 ~$ c
Count of elements : 1045( K1 t% [3 n) F8 J% @
Stream size : 28.9 KiB (0%)
/ h: n7 s; Z; E+ \Title : SDH" d9 a0 n; ?5 ?1 t8 v" j1 N  N
Language : English
+ c( B+ p7 d% T) d' S: I: DDefault : No# F6 k3 p3 ^6 A) X4 H, D$ v3 N
Forced : No
+ ^- r) z( u% W# e; m$ `3 S
8 \% c4 K: Q; SMenu- B) u, h; y; S- s" d) s5 }- e
00:00:00.000 : en:Chapter 01
2 z# L" j6 Z8 F$ N$ ~) ], S00:11:05.456 : en:Chapter 02
# S3 q! \; H/ w0 {/ P$ C00:16:08.968 : en:Chapter 03. s/ F' o2 f; X/ s6 z
00:19:16.321 : en:Chapter 04
( }; g: Q; ^1 p% _; n8 m/ X$ q# e00:25:27.651 : en:Chapter 05" Y$ E" m2 f; Z! f
00:35:52.233 : en:Chapter 06! I, S3 i. ]: @& a6 h& a
00:39:50.179 : en:Chapter 07
! T% U( f. ?: F00:46:35.459 : en:Chapter 08, [4 W" V8 h* R: W8 U
00:52:41.867 : en:Chapter 099 M  N  r0 H8 W' a& u: ~  o: v$ k
01:01:22.011 : en:Chapter 10
1 I  w9 l4 F0 u9 L0 a5 E01:08:59.802 : en:Chapter 11
2 B$ c  K0 D& \# U! l& ~01:14:49.735 : en:Chapter 127 b7 I, C9 E) f  |- B
01:19:23.925 : en:Chapter 13
/ h6 Y2 o! `* X: z# @& g01:24:46.539 : en:Chapter 14
* x1 X& }6 u+ r6 c; M  N9 n+ C& Q01:30:25.336 : en:Chapter 154 h, o, t6 b- D* W; e
01:35:24.927 : en:Chapter 16
; l& L8 U# V7 ^% n! I8 g$ s- r7 I3 s01:39:33.342 : en:Chapter 179 m9 o. C: ]0 y. m
01:43:04.178 : en:Chapter 18
1 H# [  x  O& |& A6 h01:48:54.694 : en:Chapter 191 V2 d* S0 l6 \1 p
01:53:38.603 : en:Chapter 20
Video* n% b; X2 c! \3 X
ID : 1! |8 Y2 I  ~% B
Format : AVC( q9 x+ U8 N4 {* P- x. v7 h
Format/Info : Advanced Video Codec
- f. z$ q6 C9 J1 }7 }Format profile : High@L4.1' n1 |  R1 K6 Y- }- v
Format settings : CABAC / 5 Ref Frames. o; H: |( C! V* o  Y* ?3 ]
Format settings, CABAC : Yes5 c! S7 K; g1 g7 N7 c* J( T
Format settings, Reference frames : 5 frames
1 m8 T& D$ F- M! c- j5 SCodec ID : V_MPEG4/ISO/AVC
9 t) A5 E7 c# u9 L6 G& CDuration : 2 h 4 min, _. i/ a6 t( D" f
Bit rate : 14.6 Mb/s
" l7 R4 j: Q- K! Q: L& `Width : 1 920 pixels3 a* ?; v9 t/ i" j0 J
Height : 804 pixels
% l; W( i* }* M& n8 {Display aspect ratio : 2.40:1
, s" B2 U3 v$ R% Y6 Y: w" {Frame rate mode : Constant% c5 }( H. _4 n: r
Frame rate : 23.976 (24000/1001/189150) FPS& K. ^( V9 O5 h( U3 ?
Color space : YUV
# q. v2 u1 u, BChroma subsampling : 4:2:0/ V6 L# n( v* F% P2 G- K# d
Bit depth : 8 bits6 ^# K+ z+ X$ I& Z+ ]- H6 T, p
Scan type : Progressive
/ z7 u' |+ a9 G8 `* PBits/(Pixel*Frame) : 0.3939 q& F  a, |4 f9 m$ P% P
Stream size : 12.6 GiB (80%)
7 ]$ u7 o  ?8 [Writing library : x264 core 160 r3000 33f9e141 U+ ~% u9 R: A$ t) u) A$ U
Encoding settings : cabac=1 / ref=5 / deblock=1:-3:-3 / analyse=0x3:0x133 / me=umh / subme=10 / psy=1 / psy_rd=1.00:0.00 / mixed_ref=1 / me_range=32 / chroma_me=1 / trellis=2 / 8x8dct=1 / cqm=0 / deadzone=21,11 / fast_pskip=0 / chroma_qp_offset=-2 / threads=16 / lookahead_threads=4 / sliced_threads=0 / nr=0 / decimate=0 / interlaced=0 / bluray_compat=0 / constrained_intra=0 / bframes=10 / b_pyramid=2 / b_adapt=2 / b_bias=0 / direct=3 / weightb=1 / open_gop=0 / weightp=2 / keyint=250 / keyint_min=23 / scenecut=40 / intra_refresh=0 / rc_lookahead=150 / rc=crf / mbtree=0 / crf=15.9 / qcomp=0.60 / qpmin=0 / qpmax=69 / qpstep=4 / vbv_maxrate=62500 / vbv_bufsize=78125 / crf_max=0.0 / nal_hrd=none / filler=0 / ip_ratio=1.30 / pb_ratio=1.20 / aq=3:0.80. |1 L* x: b# q5 d7 l& P/ b% l- i% \9 c
Language : English
9 Y; f0 f) R: u! b7 qDefault : Yes
: |; K' L# ]2 m) e$ s/ XForced : No
& s9 I/ [: J1 l, |3 @# VColor range : Limited& Q! B! H% H; }0 W, Q! H
Matrix coefficients : BT.709
/ ^$ j, t" ~3 U  `
7 _% S% G; j- ]/ C9 \Audio #1
+ y6 x. ~! U! j3 U3 m: tID : 2
3 z, Q" @+ w0 u; \1 ]; {" mFormat : MLP FBA 16-ch
0 A1 J# p2 J0 k1 T- r# s. R. eFormat/Info : Meridian Lossless Packing FBA with 16-channel presentation7 @* ?& ^  Q  L$ x  w
Commercial name : Dolby TrueHD with Dolby Atmos) x! S' X* i8 X, V. p/ g% n
Codec ID : A_TRUEHD5 l3 u0 j5 h: U6 |( [
Duration : 2 h 4 min
% ]# ?9 c6 T4 _  n% h7 z7 DBit rate mode : Variable
- L, h3 Z0 O) {' Q: p( LBit rate : 3 050 kb/s" O) i8 {( q+ f) M9 M7 N
Maximum bit rate : 5 652 kb/s
4 b/ T4 Q/ }, l: W" m, U2 \* W; aChannel(s) : 8 channels
- F( {* L; a$ o4 B2 {2 T( A7 nChannel layout : L R C LFE Ls Rs Lb Rb
: u/ O6 q$ b4 ]Sampling rate : 48.0 kHz
, k, o. \1 W, p" c" vFrame rate : 1 200.000 FPS (40 SPF)4 j/ P/ G3 [- [+ c
Compression mode : Lossless
* c, [1 q% P! u& s9 BStream size : 2.65 GiB (17%)$ \- p) g! ?& h: v; `
Title : English
6 v9 e: }' i- l, M$ H' X  aLanguage : English
4 K8 S. k' B; ^7 DDefault : Yes
4 L& b  F4 s4 U/ M2 R9 q4 uForced : No' H! o3 {9 f7 r1 S
Number of dynamic objects : 11
7 l" v; s$ Y4 B: }5 v8 GBed channel count : 1 channel
8 W. C/ Q! l  pBed channel configuration : LFE' `$ C1 F7 i6 C3 o

8 n* `2 D. G4 K2 G. L5 rAudio #2
/ R, b' R6 D) EID : 3
0 p( i5 f$ P' \( K0 K  lFormat : AC-3
: g8 E5 P1 V* d2 j# F# ]. G8 c9 pFormat/Info : Audio Coding 3# L5 I4 n" b8 R$ \, U9 `
Commercial name : Dolby Digital
" a- M2 Y4 J$ ]. {+ ZCodec ID : A_AC3" s2 J) {* i1 D& d4 N! O
Duration : 2 h 4 min
& R, l8 x' f$ qBit rate mode : Constant
  F; _" F- y% B2 a0 SBit rate : 448 kb/s
+ q" W! F' q+ @& I, wChannel(s) : 6 channels
* Z$ M9 a- c' l/ KChannel layout : L R C LFE Ls Rs: i  u5 f$ l6 f5 e
Sampling rate : 48.0 kHz5 L5 ]; Q7 f5 v& P. M$ E
Frame rate : 31.250 FPS (1536 SPF)) ?3 ?/ M4 B# ]7 M7 T+ m
Bit depth : 16 bits# X+ v- C, @/ l
Compression mode : Lossy
# M* j1 |; m; R! }1 hStream size : 399 MiB (2%)* j( @" U( g# X5 y: ?
Title : English
: x) H# j" b' K$ OLanguage : English8 T/ v: m  e% o2 ?2 \
Service kind : Complete Main. _4 ~( ?% |4 e5 O! D5 w
Default : No
8 I9 h+ e  B/ qForced : No
1 {& R6 Z  L; ]4 p7 U; s/ V, u, P/ M5 k- a+ ^
Audio #3
) o& @6 U0 ?! I8 |ID : 4
& b- N, m& P- W- m; {1 OFormat : AAC LC
% I8 Y7 {: b9 \: aFormat/Info : Advanced Audio Codec Low Complexity. w0 c1 I+ r. B. G) U
Codec ID : A_AAC-2
8 S9 M$ G/ I4 g" U. ?* a. y- p: xDuration : 2 h 4 min
% p0 q" F! \  f+ E, qBit rate : 128 kb/s
0 i0 n3 h6 R5 m1 ]$ rChannel(s) : 2 channels
' d3 P! C/ p" L9 j1 S/ _Channel layout : L R; X$ N5 \" m- H) L# [
Sampling rate : 48.0 kHz/ N! I+ F" R4 P
Frame rate : 46.875 FPS (1024 SPF)
# C1 `# d  F' b9 Q. R5 bCompression mode : Lossy
, Y: j$ b# c9 K* Z- j/ N5 DDelay relative to video : 9 ms7 V) v+ j9 z: n' U! H3 F2 n
Stream size : 114 MiB (1%)
- x% Z# ^$ B8 ^- P" A4 Y& RTitle : Commentary With Writer/Director Leigh Whannell
2 T1 s2 G8 }' i& J1 U, P% j9 M" H( ALanguage : English
& l  i9 N8 u/ Q: @Default : No. s. F  f6 J, g" o' u- Y* R
Forced : No
" Z9 F$ h4 w1 @( s* _, l* A. O* m; z) N0 U' L, t
Text #1
* F/ |* Q+ k/ v! t; {7 TID : 5) m0 t' h4 O, g* j
Format : PGS" _: `; p) _+ M2 G* c  L
Muxing mode : zlib3 N; j# j' E0 n' J: g
Codec ID : S_HDMV/PGS8 O+ G2 d( \  X# g& |. L! Z4 j
Codec ID/Info : Picture based subtitle format used on BDs/HD-DVDs
! r# c  R2 S  o3 MDuration : 1 h 50 min
. q, x) v. h7 `3 F( g- l, _5 kBit rate : 24.9 kb/s
9 s2 y8 T6 Q% Y& k* ^Count of elements : 2096
+ q1 n; t/ K# P' n: JStream size : 19.6 MiB (0%)5 f  \+ P$ S& E
Language : English
1 \8 S5 B3 j0 k- E9 }1 CDefault : No
- p0 K' n7 h3 k" NForced : No
3 M% S, c! Q; g* w$ ~7 N6 O: y  f# M, e% X
Text #2
$ C. l7 e5 B$ p1 Y2 n! o8 GID : 68 o% c' H( Q5 b* K) u
Format : PGS
) w$ Z3 y8 C! O' {" b# Q2 CMuxing mode : zlib
$ M; A" y3 u. Z9 e* i. }Codec ID : S_HDMV/PGS
( Z- T3 n5 ?$ VCodec ID/Info : Picture based subtitle format used on BDs/HD-DVDs
4 |. ?5 a; X: E  @Duration : 2 h 3 min
% f3 k# u9 b6 o' aBit rate : 17.0 kb/s9 ~  X0 E( ]0 C
Count of elements : 17922 \, v$ k* |/ \! o
Stream size : 15.0 MiB (0%)" w& o* s& E( V6 F7 J
Language : Spanish
# W# }0 ], t8 F- aDefault : No
- v* k$ Z- f6 y/ }# V7 u# Y7 qForced : No2 P  f0 [' G/ y( u  F

1 I  e4 y; g8 I; FText #34 W" V. w/ V% v% }8 u+ x! G" c
ID : 7% y7 e. j* z: o) H
Format : PGS
6 w* h0 E) v* ?: A7 f% l5 CMuxing mode : zlib9 U, |9 I9 Y$ y: i
Codec ID : S_HDMV/PGS  b4 h$ F1 w" K; s
Codec ID/Info : Picture based subtitle format used on BDs/HD-DVDs, y+ Y$ F: ~& q7 e
Duration : 2 h 1 min
: h0 R9 S4 X* _! s5 m4 u3 f1 t, TBit rate : 19.0 kb/s5 d6 U  U) ?4 N  \3 A4 D0 \
Count of elements : 1752- f2 R3 w$ U4 b' {
Stream size : 16.5 MiB (0%)% G+ x9 e; D) W  ?9 ]0 L0 g3 x
Language : French6 y0 d$ b) \5 |! o8 Z* ~$ Z+ ~
Default : No
2 M) c( X: d; z9 w5 }Forced : No
' x9 S4 `! R7 m  v8 B# k
! k: d( Q( D. @8 Y# DText #4# @2 Q1 |+ B6 k- C
ID : 8
- @+ C3 g. [% \& d( fFormat : PGS) X5 P( l0 T) |1 ~
Muxing mode : zlib% ~" P+ Q) ?0 E( r! X5 f3 C0 W
Codec ID : S_HDMV/PGS, r% N& f/ s8 \. t) j( O
Codec ID/Info : Picture based subtitle format used on BDs/HD-DVDs# s5 H  ?+ {% `7 g; u9 i
Duration : 2 h 3 min8 F  i0 A& @4 O, |* N, B( O# B
Bit rate : 620 b/s
1 N8 P4 B* _! x1 F1 O' \- A- jCount of elements : 52
8 B0 B& m" A# IStream size : 559 KiB (0%). b- |# Q3 Y' Y! O
Language : Spanish
0 y  u5 O$ h; H0 q7 pDefault : No
% h& \* g- O2 o2 T, k- x3 YForced : No
' S  O! m) ]9 b- |  L
: p+ m+ @+ J2 v8 e" dText #51 \3 ~" t* T+ v! ~
ID : 9) ~. P& s! L' ^" y" l: y5 p
Format : PGS
* r1 @9 ]3 h% M% U/ o  XMuxing mode : zlib7 `3 I. F0 `5 }8 C) |4 r
Codec ID : S_HDMV/PGS
( d5 W9 N1 i+ C/ f( O, I2 Q# @Codec ID/Info : Picture based subtitle format used on BDs/HD-DVDs" f% r. l9 Z4 c5 E  a4 J' _
Duration : 2 h 1 min9 M9 h$ n+ k! W6 d: i
Bit rate : 671 b/s9 [- b9 y+ s$ l: N2 A0 e- R
Count of elements : 44
- w: O' W" c' }$ q7 ZStream size : 598 KiB (0%)
1 ~) @, M. T- m' T+ `; f. ALanguage : French
4 k! Y% a% e6 j0 zDefault : No
2 B7 G( c& m. D/ NForced : No
6 Y) R; y8 o  I0 V
* \) s4 o4 n$ nMenu, f% j* I2 O9 g! x
00:00:00.000 : en:Chapter 01
# d! E* L# t; j$ A. t. B2 d00:11:05.748 : en:Chapter 02# n% p3 b6 V$ R2 j/ O. ~
00:16:09.135 : en:Chapter 03* k# [& E6 h# b* ^4 @0 c% q* {
00:19:16.322 : en:Chapter 04
" W5 A2 Z0 Z8 m! r$ h! ~% m1 p5 O00:25:27.651 : en:Chapter 05
% n! Q/ k& w- \4 M# ~: f00:35:52.233 : en:Chapter 06$ ]% Q, ], l, A( X9 W, Y
00:39:50.179 : en:Chapter 07
7 M- Y! v3 ^! C. e2 @0 i00:46:35.459 : en:Chapter 08* w# ^4 m) p0 a4 d
00:52:41.867 : en:Chapter 09
2 w7 P, G6 A; v4 q01:01:22.012 : en:Chapter 10, Q' I2 X$ s+ R
01:08:59.802 : en:Chapter 11' K6 ]* Y$ z  r2 p8 W! H' d
01:14:49.735 : en:Chapter 12! N7 _( H) w2 }* z
01:19:23.926 : en:Chapter 13
  y$ n4 }  G( a* i6 H01:24:46.540 : en:Chapter 14$ R3 b4 C/ X+ ]; k" y
01:30:25.337 : en:Chapter 15
) G: [; q4 }9 F: i+ |- z; m01:35:24.928 : en:Chapter 16
* S0 u$ e% l7 [$ p! Q" x7 O01:39:33.342 : en:Chapter 17+ M: Z1 ^) {2 Q
01:43:04.220 : en:Chapter 184 e, a. X& g  [! b4 _6 c7 N
01:48:54.695 : en:Chapter 19
; i% i# B( h5 |01:53:38.812 : en:Chapter 202 h4 i& Y4 P" D' H, j- l
) c" m0 h1 w$ z: E7 ?7 t5 p" |
The.Invisible.Man.2020.1080p.BluRaycd.x264-YOL0W
, F/ u$ E9 D% j; R2 o" f
- C! X) t( t  K7 a) s8 J" I* WDate........: Fri 05/15/20204 c9 m7 K! a. Y8 n" B2 _
Source......: BluRay3 C8 t4 D4 c7 Z# s5 @+ T
Runtime.....: 02:04:23.156
2 [+ i& {0 B( j/ X) m! N- M/ x) T7 J
Video.......: x264 @ CRF 15.9
! u, E& d( z1 c# `! I6 IResolution..: 1920x804 2.40:1
, f5 b0 }5 u/ bBitrate.....: 14555 Kb/s
) A. [6 B' N1 R! ~- H; cFPS.........: 23.976
$ o7 J; f5 u% pSource......: 27660 Kb/s
) W! a  }" G" ^9 `' _: J
0 w* h3 E% u8 q' o8 KAudio.......: English TrueHD Atmos 7.1 / AC3 448 kb/s 5.1) N8 e7 W* p5 z$ t4 O
Commentary With Writer/Director Leigh Whannell AAC 2.0& A7 J7 _# G5 f# r$ {5 I

0 C3 K1 p- E. u4 m0 l3 ~Subtitles...: English Spanish French
3 H  I2 `; i, x3 s. f7 c; W$ h
Size........: 16254 MB: H# X1 N* B* t" S
$ D# c  d' O( _/ X/ H  i+ P
Link........: https://www.imdb.com/title/tt1051906/
* ]* @# B4 x+ D3 @, I) N. y8 xNote........: Fuck 720p
/ X8 _7 a6 o( r+ ]( D- w
游客,查看本帖隐藏内容请回复 | 加入VIP可免积分免回复 了解详情 | 还不是会员:点击获取邀请码 Invitation Code

2

主题

717

帖子

3329

积分

Sponsor

金币
582 枚
体力
1389 点
tto138 发表于 2020-5-24 19:18:26 | 显示全部楼层
沙发是抢的而不是占的!! u- N6 h8 L! ^, O! L* S
In fact, I have always felt that the landlord of good taste! Ha ha!/ h) \1 X, c& K& ?1 f* t9 R# j- b

0

主题

111

帖子

467

积分

Sponsor

金币
3 枚
体力
237 点
jqguan 发表于 2021-5-31 17:49:12 | 显示全部楼层
好好学习天天向上

本版积分规则

小黑屋|Archiver|蓝光电影资源网

GMT+8, 2022-8-15 06:52

Copyright © Tencent Cloud.

快速回复 返回顶部 返回列表