BluRayCD Forum

 找回密码
 立即注册【分享大片】
查看: 77|回复: 2
收起左侧

[科幻恐怖] 隐形人/隐身人/隐形客 The Invisible Man 2020 720p BluRaycd x264-YOL0W 5.84GB & 6.09GB

[复制链接]

1万

主题

1万

帖子

12万

积分

Post Share

金币
24000 枚
体力
24786 点

卓越贡献勋章

mvods 发表于 2020-5-18 15:39:37 | 显示全部楼层 |阅读模式
01.jpg - L9 s( Z; {' ?! n4 F( P- E% z9 Z

+ x. H' K0 j2 N. L6 c- i& J◎译  名 隐形人/隐身人/隐形客(港)
; |) y' C: i1 y) X' V◎片  名 The Invisible Man
. w, s" i4 Y$ X. E, {◎年  代 2020) o, \6 l: r  o  O) D
◎产  地 澳大利亚/美国/加拿大/英国2 y) y1 T( s6 e) [1 s# {
◎类  别 科幻/惊悚/恐怖! b2 `* m+ k, u* q
◎语  言 英语
* [1 y# M5 c0 r0 W◎上映日期 2020-02-28(美国)
3 L. [" A' b/ G* M3 W; J9 |2 m) E, D◎IMDb评分 7.1/10 from 94,782 users
8 h1 y2 ?; n# Z* d◎IMDb链接 https://www.imdb.com/title/tt1051906/
6 k1 a. }3 K, D  V! Q& e◎豆瓣评分 7.3/10 from 114,302 users% \& c1 E( W; z* i( q4 e4 T
◎豆瓣链接 https://movie.douban.com/subject/2364086/( f( B7 \) C. ~1 L& d2 E$ _- S
◎片  长 2 h 4 min1 b% T2 M& u3 h5 Y* Z
◎导  演 雷·沃纳尔 Leigh Whannell1 \/ Y$ X' y6 E( N$ A
◎编  剧 雷·沃纳尔 Leigh Whannell 5 |# P+ e1 n$ w) P8 F
      赫伯特·乔治·威尔斯 H.G. Wells
9 H1 M0 w2 y) g$ G# f◎主  演 伊丽莎白·莫斯 Elisabeth Moss- m+ J5 Q% N8 d; e8 M& B8 J: A4 V
      奥利弗·杰森-科恩 Oliver Jackson-Cohen+ \% @3 c8 U9 O0 {, Z4 l
      阿尔迪斯·霍吉 Aldis Hodge
; t: ?6 |( i' @- [6 S5 p      迈克尔·多曼 Michael Dorman
( u. N+ ]( u+ P3 A/ z7 k      斯托姆·瑞德 Storm Reid" N" l4 C# h* E, m0 l) E  e: A
      本尼迪克·哈迪 Benedict Hardie2 i$ X# o0 t& z0 P+ R
      哈丽特·戴尔 Harriet Dyer- L4 {' K! h* k* [" I
      瑞妮·林 Renee Lim
, D0 j0 p! @0 i      布莱恩·米根 Brian Meegan
8 O2 M. p$ n' o' A2 p      薇薇安·格里尔 Vivienne Greer) V+ `# v5 L1 s$ Y4 F
      尼古拉斯·霍普 Nicholas Hope
6 d" V+ v' @% |, w& K% t      克利夫·威廉姆斯 Cleave Williams0 Z) b  |8 w( X- I3 n* j, Y
      萨姆·史密斯 Sam Smith
6 h# ]# n4 u) W% R      扎拉·迈克尔斯 Zara Michales" J% ?# F9 h. S9 d+ h
      纳许·埃哲顿 Nash Edgerton; z, P( M9 M5 h* R# j! X+ {: h
      安东尼·布兰登·黄 Anthony Brandon Wong
% @& \/ w' F9 B/ g$ y1 N2 d      阿玛莉·沃德 Amali Ward
/ c$ g' P4 M3 J$ }( \      迈克尔·诺特 Michael Knott* k$ X" r! v4 X, V: [/ O1 C

1 P) p7 v2 p, W◎标  签 惊悚 | 悬疑 | 恐怖 | 科幻 | 美国 | 犯罪 | 2020 | 剧情
2 P' |0 U4 k6 p  O- S  S* W
6 P+ ]+ v, \7 u7 y  J◎简  介
& f  K% j* |/ G7 u1 G! g9 o+ A" i8 u! p& D* W) W) `
  西西莉亚(伊丽莎白·莫斯 Elisabeth Moss 饰)再也想不到,曾经将自己迷得神魂颠倒的英俊男人阿德里安(奥利弗·杰森-科恩 Oliver Jackson-Cohen 饰),如今会成为噩梦的始作俑者。在和自己恋爱后没多久,阿德里安便开始对西西莉亚进行精神和肉体上的双重控制,终于,忍无可忍的西西莉亚在一天深夜用安定将阿德里安迷晕,成功的逃出了魔窟。
$ \) E, r  R3 K, K4 v" Y& M
" D) y- [6 _9 D2 }8 S/ l9 r  之后,西西莉亚震惊的收到了阿德里安自杀的消息了,她几乎不敢相信,这个魔头真的从自己的生活中彻彻底底的消失了。西西莉亚的疑虑并不是空穴来风,在她生活的角角落落中,似乎都有一个无形的影子在窥视着她,企图触碰她。" x9 O& U) l( y; S( c0 r, c
- B8 ]/ x9 V' A
  When Cecilia's abusive ex takes his own life and leaves her his fortune, she suspects his death was a hoax. As a series of coincidences turn lethal, Cecilia works to prove that she is being hunted by someone nobody can see. ! j4 h5 z- O4 y) K' L% o  {. h
Video3 N4 t( e/ i) }
ID : 1
2 A: D$ x' J/ \4 e7 _7 X% X4 rFormat : AVC8 W3 H9 s: V) J% n  w; V* _8 Q
Format/Info : Advanced Video Codec4 I$ ]$ [8 L( B/ k- J
Format profile : High@L4.1
0 t/ P5 |+ K! A0 m# ]Format settings : CABAC / 4 Ref Frames
3 M4 K# t% b* U" rFormat settings, CABAC : Yes
; M+ Z6 a6 h9 N7 [Format settings, Reference frames : 4 frames
! [" o, u. n' p0 @+ u9 b( wCodec ID : V_MPEG4/ISO/AVC
- C/ B/ e: K' e) V  z+ LDuration : 2 h 4 min
' ]" v3 U. l; L' R9 XBit rate : 5 500 kb/s
4 a7 Y. s. \6 o- ~1 f$ I  T9 D5 PWidth : 1 280 pixels4 V2 W( K& e$ N& [; Z) x, y# O
Height : 536 pixels5 |9 c( ]4 [# Y; [$ F& E4 U; c
Display aspect ratio : 2.40:1. x+ p( h! \: P0 _
Frame rate mode : Constant
' G/ ^- R0 q' ?. P1 Z/ p, }7 B9 RFrame rate : 23.976 (24000/1001/189150) FPS. A, X& ~& ]6 D) p0 B6 o
Color space : YUV" x/ P4 f3 {  e9 m& N1 a# n% U! M
Chroma subsampling : 4:2:0
5 W) d! i: }& W  e8 F4 e  s0 A  A' vBit depth : 8 bits
. f# N3 k$ L" g2 SScan type : Progressive
& k  E' t3 F8 B, p1 x! VBits/(Pixel*Frame) : 0.3344 E6 N! u: P7 s* L8 I
Stream size : 4.78 GiB (78%)8 V9 u) W5 T: u# q9 b0 ^
Title : The.Invisible.Man.2020.720p.BluRayCD.x264.DTS-FGT
) a0 `3 M; p! w) C3 _' g. n0 z, `+ hWriting library : x264 core 148 r2748 97eaef2
" {) y8 L7 f5 T' OEncoding settings : cabac=1 / ref=4 / deblock=1:-2:-2 / analyse=0x3:0x113 / me=umh / subme=9 / psy=1 / psy_rd=1.00:0.15 / mixed_ref=1 / me_range=16 / chroma_me=1 / trellis=2 / 8x8dct=1 / cqm=0 / deadzone=21,11 / fast_pskip=1 / chroma_qp_offset=-3 / threads=72 / lookahead_threads=3 / sliced_threads=0 / nr=0 / decimate=1 / interlaced=0 / bluray_compat=0 / constrained_intra=0 / bframes=3 / b_pyramid=2 / b_adapt=1 / b_bias=0 / direct=3 / weightb=1 / open_gop=0 / weightp=2 / keyint=250 / keyint_min=25 / scenecut=40 / intra_refresh=0 / rc_lookahead=50 / rc=2pass / mbtree=1 / bitrate=5500 / ratetol=1.0 / qcomp=0.60 / qpmin=0 / qpmax=69 / qpstep=4 / cplxblur=20.0 / qblur=0.5 / vbv_maxrate=31250 / vbv_bufsize=31250 / nal_hrd=none / filler=0 / ip_ratio=1.40 / aq=1:1.008 R# T  k( z; Q
Language : English# Q; ^  j7 v) X( T2 Y
Default : Yes
6 ^9 Z' t" b9 R. cForced : No
0 J" ^' f$ n& w7 M2 g% G  D
/ x$ r' w' r# ~4 ]5 j, iAudio2 `5 \- ]; i8 |8 ^
ID : 2
/ j) ^2 H) [. [$ X7 n+ @Format : DTS
% a1 T0 d" T! l4 I9 _: s$ _* JFormat/Info : Digital Theater Systems+ z& f7 s& c& h- T$ b
Codec ID : A_DTS& O9 d9 A- m2 L* U( H& k! }8 g
Duration : 2 h 4 min0 S& O& ], ^4 h9 w
Bit rate mode : Constant2 x9 u; L7 \- s, F3 H
Bit rate : 1 509 kb/s
: S" S2 Y& K2 Y7 l6 A1 K5 {Channel(s) : 6 channels9 Q( |) m& V: `6 v9 s
Channel layout : C L R Ls Rs LFE* N7 G3 a3 J/ z& t( y
Sampling rate : 48.0 kHz! V( P. v, u0 E& P$ D" ^! ]
Frame rate : 93.750 FPS (512 SPF)
7 j2 ]+ |  I: g& s5 J) E5 ~Bit depth : 24 bits& v/ v! [/ k4 x- q/ s
Compression mode : Lossy
/ ~. U" Q4 P7 b4 j; U: DStream size : 1.31 GiB (22%)
1 L2 q$ E% c7 h2 f$ ?Title : The.Invisible.Man.2020.720p.BluRaycd.x264.DTS-FGT( j1 G5 R! b- \) A
Language : English) K# ?8 G' i* e# _* j
Default : Yes( Y1 m; s4 B( D* A' M  o
Forced : No4 ]  u! U3 d& a$ |

# F4 n$ Q  S6 w* W. AText #1+ I' s& C$ _  f; ~- Q
ID : 38 Y  v- G+ y% R- F' Y: T* x% _
Format : UTF-8
7 G7 ~# ?3 B! zCodec ID : S_TEXT/UTF84 g  C2 t0 W3 _0 t7 s$ T1 U: r
Codec ID/Info : UTF-8 Plain Text' v- o& c2 Z& N3 X
Duration : 1 h 49 min
. g( M' @- M0 J# i8 YBit rate : 31 b/s+ {$ O0 y" o0 ?( R3 i, k
Count of elements : 863
+ G+ v9 w4 [/ |6 e8 V$ L/ j2 WStream size : 25.5 KiB (0%)
" m  @. c( W: O" N6 ~$ n( O- LLanguage : English. B' O/ B! a, z( z- A/ G' ?4 q7 C. l
Default : Yes0 o1 ^% a% E3 E5 I( \) L! T
Forced : No
; M9 L* J& Y7 _& F
/ D5 j/ M5 `3 {Text #2. ^* v4 d7 h- m0 N
ID : 44 @7 O; M+ [; k' n. Y' y% X
Format : UTF-85 ^% N0 f( x0 s, L
Codec ID : S_TEXT/UTF8
" r* b) A* |; QCodec ID/Info : UTF-8 Plain Text2 \0 D" s2 D; Z
Duration : 1 h 50 min
% q8 Z- ]4 O+ k$ ABit rate : 35 b/s* G6 Q; n' }9 M: x. o1 E! _3 ~" p
Count of elements : 1045
0 v! i3 S( t' H8 XStream size : 28.9 KiB (0%)
4 d8 O1 x* |4 z  K5 lTitle : SDH2 o- ^( o* V2 B% W; x5 T5 Q. d
Language : English
7 ^- O2 x- E7 WDefault : No
# P6 d) U: E! ~+ w! d6 mForced : No
0 Z- z2 x$ L. k2 Z, A0 }' \8 ]8 h- ?* C+ g  _2 R# u
Menu
7 @& J8 o2 n9 ?00:00:00.000 : en:Chapter 01
# Y' c, q5 q6 `! E2 n6 A00:11:05.456 : en:Chapter 02
9 l8 B8 ]' M1 w- D00:16:08.968 : en:Chapter 03+ G) D" W# q9 p6 {- m9 z8 ]
00:19:16.321 : en:Chapter 044 g% v# _( i5 {5 d9 l
00:25:27.651 : en:Chapter 05
; D3 s9 t4 M! j" d* }# w$ G00:35:52.233 : en:Chapter 06
4 ?% J2 U5 I4 U00:39:50.179 : en:Chapter 073 X7 ?# n$ S# y2 M! |6 F9 ]: G
00:46:35.459 : en:Chapter 089 D1 z2 f& q6 q  {# ?6 f. K5 ?3 s! @
00:52:41.867 : en:Chapter 09
# u9 t( d0 ~5 \0 E* O. U01:01:22.011 : en:Chapter 10! L) \& z9 j/ w6 N
01:08:59.802 : en:Chapter 11
0 g' {; U, K9 D) x1 s- v* e1 }01:14:49.735 : en:Chapter 12, R1 o; N, h* @' u' }! {) Z0 x
01:19:23.925 : en:Chapter 13
; _. Y3 r  ]0 i01:24:46.539 : en:Chapter 14% k4 ?6 r6 S+ X+ E/ j% w7 O
01:30:25.336 : en:Chapter 15
7 J! l+ h( q, x6 N& c/ I01:35:24.927 : en:Chapter 16! d; o) R9 C8 k
01:39:33.342 : en:Chapter 17$ O7 Q- S7 j$ L
01:43:04.178 : en:Chapter 18
% M% ^: f: A# J; Q/ W* e01:48:54.694 : en:Chapter 19
5 B! {5 [, m$ T1 p9 e/ n- j5 j01:53:38.603 : en:Chapter 20
Video
; ~5 o2 U: Q+ e% p& z+ g" TID : 1
6 n% `# O( |) X4 f' }Format : AVC/ m1 Y4 Y1 S& k! o( K
Format/Info : Advanced Video Codec
. m1 t  x% L0 x' S% xFormat profile : High@L4.1
8 v- l( T; ^3 B" r  \Format settings : CABAC / 12 Ref Frames  @$ \+ G+ T- ?/ w
Format settings, CABAC : Yes
/ c6 J. {0 ?! S6 y/ s% iFormat settings, Reference frames : 12 frames; o: Q8 u  k) ]. p5 f9 K
Codec ID : V_MPEG4/ISO/AVC
# r+ ?$ O4 y8 l, H5 c3 |Duration : 2 h 4 min  ?5 G; [' c/ ]* q5 W8 M8 Y
Bit rate : 5 930 kb/s/ n/ ~/ v: K, y4 |$ f9 |) R; `) O
Width : 1 280 pixels
& t! g9 f, S3 v+ g1 k6 UHeight : 536 pixels
- Z! O$ _3 Q- P. h( ?5 _( o9 [& zDisplay aspect ratio : 2.40:1/ E) C8 S% w- ~( b, }
Frame rate mode : Constant
, i* m5 X' T) WFrame rate : 23.976 (24000/1001/189150) FPS+ s7 P" w/ C6 N' C6 e
Color space : YUV
9 I' c) L" ~5 M/ ?Chroma subsampling : 4:2:03 g0 `' E' ?6 ~5 j% W- [% z- ^4 ^
Bit depth : 8 bits
8 y) [4 H& |8 j* k! G! jScan type : Progressive
0 \( g! |: a9 LBits/(Pixel*Frame) : 0.360
. i1 D3 Z& R% W9 S( Z2 oStream size : 5.15 GiB (88%)
6 v3 ]3 b* V  u# U  Q  W% TWriting library : x264 core 160 r3000 33f9e14& O2 J4 ?7 ]" M3 {
Encoding settings : cabac=1 / ref=12 / deblock=1:-3:-3 / analyse=0x3:0x133 / me=umh / subme=10 / psy=1 / psy_rd=1.00:0.00 / mixed_ref=1 / me_range=32 / chroma_me=1 / trellis=2 / 8x8dct=1 / cqm=0 / deadzone=21,11 / fast_pskip=0 / chroma_qp_offset=-2 / threads=16 / lookahead_threads=4 / sliced_threads=0 / nr=0 / decimate=0 / interlaced=0 / bluray_compat=0 / constrained_intra=0 / bframes=10 / b_pyramid=2 / b_adapt=2 / b_bias=0 / direct=3 / weightb=1 / open_gop=0 / weightp=2 / keyint=250 / keyint_min=23 / scenecut=40 / intra_refresh=0 / rc_lookahead=150 / rc=crf / mbtree=0 / crf=14.7 / qcomp=0.60 / qpmin=0 / qpmax=69 / qpstep=4 / vbv_maxrate=62500 / vbv_bufsize=78125 / crf_max=0.0 / nal_hrd=none / filler=0 / ip_ratio=1.30 / pb_ratio=1.20 / aq=3:0.802 s. a$ E: W% N( H' j" `
Language : English( u1 L" Q0 ^7 p# g( @
Default : Yes+ M2 j9 @, W' c6 q. L; \
Forced : No' p; u) i% p! G, R8 K' Z; ]/ o
Color range : Limited% x' @' |$ l; C6 ^
Matrix coefficients : BT.709( K+ g5 D7 K5 s( u- e

/ i9 s  J) w  R. l4 NAudio #17 [! D* `% {! v0 u; `& s* @/ Y* ?
ID : 2/ u# j) Z" e5 L3 Y: ^5 ?% e: j
Format : AC-3% s( g: q' T$ N. q
Format/Info : Audio Coding 3' \. A6 X1 Q5 t* e* P2 `
Commercial name : Dolby Digital
* g, q, N7 A, Y; g5 BCodec ID : A_AC3
0 e7 u/ S) b8 e6 m* M8 `# SDuration : 2 h 4 min
! K  y  J) [5 hBit rate mode : Constant
% ]9 w' T3 @! a! KBit rate : 640 kb/s; f& ^. `0 a9 H$ `
Channel(s) : 6 channels( Z7 w$ A3 N- |
Channel layout : L R C LFE Ls Rs( e' t+ o  Z' p0 T" ?: x% S
Sampling rate : 48.0 kHz2 _4 _8 c5 h" y
Frame rate : 31.250 FPS (1536 SPF)  ~2 b( m3 }" ^. u. b! r/ E
Bit depth : 16 bits
5 w, j) ~! i) m  f% {Compression mode : Lossy8 u6 C$ V& d/ q
Stream size : 569 MiB (10%)
: g0 C" |4 ^! R2 A7 XTitle : English: g' t  I" J' Z! p9 a. ]
Language : English" ~2 s# F- t" c' t$ ~  Y- J- e
Service kind : Complete Main
2 H+ X& O" G4 h$ ]' A. hDefault : Yes
+ R6 F% |# @; x: i# H2 cForced : No( |9 ^4 Y$ X1 ^
* J+ V9 b  O2 H% @
Audio #2
7 V2 M* u8 C7 O; M( O# P! p% p6 mID : 39 E" t5 G+ |( F' Z2 S
Format : AAC LC
) y7 Q; [: g# [2 s" h' k) |  LFormat/Info : Advanced Audio Codec Low Complexity
& n: f% ~5 c5 ^: |4 ICodec ID : A_AAC-25 a8 G0 E# Y( e' A  i$ d  |0 @" G
Duration : 2 h 4 min. [+ ~; m+ [7 T- s
Bit rate : 128 kb/s
& J3 ?& @! S! E$ x) ?* {Channel(s) : 2 channels$ z: O% z. t6 C/ T* j- e! F
Channel layout : L R4 g/ b0 \9 |, _- }" E
Sampling rate : 48.0 kHz
1 I# o' Y! {& H' z+ zFrame rate : 46.875 FPS (1024 SPF)
4 l4 R: ~0 }9 P0 [3 [; M' i; K& eCompression mode : Lossy& `2 L, I  B1 i2 P# x+ b( y. F
Delay relative to video : 9 ms* {+ e5 j4 l: `4 y8 ?: l
Stream size : 114 MiB (2%); p+ l6 j( U. K- q! O1 ^4 m/ D& n
Title : Commentary With Writer/Director Leigh Whannell
0 U9 M2 ]0 O! V! ^, ALanguage : English
3 [7 `8 Z9 t  b. Z# S. JDefault : No. c5 x+ e2 w! H+ i2 J/ d# F
Forced : No/ ^! D- H5 C( s. {4 r4 i

' y7 B7 s4 |# k) Q( vText #1
# p  L: z) r( ^0 g& `: oID : 4, _" _. T3 L  m1 P& h+ ^
Format : PGS) Y3 o5 K  a& q/ |
Muxing mode : zlib
( @9 i. B' Y) a# d# S2 QCodec ID : S_HDMV/PGS# x. Q) x4 {5 ]# h$ e! {/ ~
Codec ID/Info : Picture based subtitle format used on BDs/HD-DVDs1 z+ l/ A2 f  I7 ~+ ?
Duration : 1 h 50 min2 F* z+ S0 ]1 t2 y, P, T! k
Bit rate : 24.9 kb/s! ?' c( T1 ~+ I7 h& @# `
Count of elements : 2096
4 M+ P  b: r5 b$ vStream size : 19.6 MiB (0%)6 J: K" i6 h& F7 `8 X( C
Language : English# b! Y/ f* _: y# k6 F
Default : No
, t8 X6 x; }% E, W1 z, I8 @Forced : No
/ B! g+ D3 X  |% X: _- [% c1 g" Q( Q' X0 f, y
Text #2
) q2 Y& F, d, @' O; WID : 5; }0 z# y# ~& [
Format : PGS: i7 v- R- c, \& A
Muxing mode : zlib& f- v: h0 C# I0 M8 C3 w6 q
Codec ID : S_HDMV/PGS
* ?- d4 t+ H" A: O3 gCodec ID/Info : Picture based subtitle format used on BDs/HD-DVDs
: ~% `- Z3 f* O: M! K$ mDuration : 2 h 3 min2 ]$ \4 Z6 a2 {+ Y2 z
Bit rate : 17.0 kb/s2 ~, B! i6 `* y7 d! a2 ]* R6 u3 F/ Y
Count of elements : 1792$ B8 [3 D1 ^+ v6 R. J8 t+ ~
Stream size : 15.0 MiB (0%)
: p7 g# [- \# z+ ~Language : Spanish2 h, ?+ S2 E1 f" H
Default : No. W8 j$ i% ?6 v4 h4 c8 ~
Forced : No
8 [" a( H, \* c) p( c! y' ~
2 a+ [* k+ s- A- AText #3
1 ?0 J! U  I0 r1 D$ f( BID : 66 w9 ]7 w9 a5 k8 m& K$ D; ^) f3 R7 r
Format : PGS; s8 N& N6 Z) D+ a0 u7 N
Muxing mode : zlib
/ V" R6 d1 o7 iCodec ID : S_HDMV/PGS
: H8 M0 a6 B4 U2 u3 cCodec ID/Info : Picture based subtitle format used on BDs/HD-DVDs
9 J4 g- \& j5 F8 e( }* f8 MDuration : 2 h 1 min
7 o/ g+ U7 N, C* Z* `, j5 e6 M* `Bit rate : 19.0 kb/s3 C4 U# D7 \" i) t- f
Count of elements : 1752" q- J' z% f' `  @# D
Stream size : 16.5 MiB (0%)
% P/ U( K1 Z9 g; X) dLanguage : French% C6 @& l) S4 Z. T# A% Y
Default : No* W. l& e3 L/ M6 Z6 H
Forced : No* z) l. t+ @" F* T; s

1 S' @/ V6 C3 C2 }Text #4% S: q1 V% l& G5 `+ D6 d$ d
ID : 70 G& v) J+ W0 `( [* d4 c5 |
Format : PGS
3 Y: ]$ Y4 _- C( H0 ]; k, bMuxing mode : zlib5 G& Z6 X: e+ h  }4 Z, j/ ^
Codec ID : S_HDMV/PGS6 Q& D5 R& Q8 E
Codec ID/Info : Picture based subtitle format used on BDs/HD-DVDs2 W7 V1 f1 V! |
Duration : 2 h 3 min$ D& k! E. \" a3 X/ W4 t  \2 W
Bit rate : 620 b/s
" s- G% |% `& L2 oCount of elements : 529 m9 k9 D, [+ D2 z" G
Stream size : 559 KiB (0%)
% y4 I' {6 J8 h4 W/ wLanguage : Spanish
% f% |# l0 o+ x5 \. z# ]8 m7 E2 a& c7 T+ jDefault : No
  ^; m$ [2 L/ K, j, K3 CForced : No
+ w# j8 e# L6 q2 q+ L& I' Q5 ~$ l2 z( ^5 G( i* C
Text #5, q' T$ ^9 l) }/ E4 Z
ID : 8! r1 U, l3 i8 S4 b. o6 ^
Format : PGS
. ~  P% d( P$ S: |  pMuxing mode : zlib* |# m+ g4 y$ G" ^7 \; F
Codec ID : S_HDMV/PGS6 O( B( `& Y* B8 M! t+ O
Codec ID/Info : Picture based subtitle format used on BDs/HD-DVDs1 J4 s& v8 p- h2 l, E1 n3 `
Duration : 2 h 1 min
$ B  e. q2 a3 \2 q! `6 X" dBit rate : 671 b/s
, p3 s1 J5 W) C) o7 [Count of elements : 44$ l2 r5 Z* w8 l! D  X
Stream size : 598 KiB (0%)4 V7 \# P6 |% g9 p
Language : French
& u$ B" e9 |3 q: d" f: G) iDefault : No
5 W2 X" c4 Z6 O: W9 r( wForced : No  u) {5 L+ D+ C+ T" r1 \
  S$ j# F  s5 s8 G; W9 f
Menu
& P  K) f' }" Y: \00:00:00.000 : en:Chapter 01* @) j/ K, `, U
00:11:05.748 : en:Chapter 02% U8 v! Z' f. W" V$ O3 X
00:16:09.135 : en:Chapter 037 e* g: x# [4 z) d+ E
00:19:16.322 : en:Chapter 04
$ C/ t8 e' c* u+ z& E% ]6 R7 Q00:25:27.651 : en:Chapter 05
$ e8 t3 y: M" I$ {# Q. u0 p00:35:52.233 : en:Chapter 06
9 g2 H2 K  m/ u0 n00:39:50.179 : en:Chapter 07
" i; P, t$ _9 x/ O# f* Q, e00:46:35.459 : en:Chapter 08
* j% X! J& i% ?$ [00:52:41.867 : en:Chapter 09
" O* ~! s6 J* Z9 x, ]6 s) W! r) f01:01:22.012 : en:Chapter 10
& J$ W+ N' e7 F& l4 W' j01:08:59.802 : en:Chapter 110 m7 a3 W$ R' C* f5 A0 \
01:14:49.735 : en:Chapter 12: Z5 y7 M6 m# b- \2 [/ q( J
01:19:23.926 : en:Chapter 13" ^' J. o2 M( d
01:24:46.540 : en:Chapter 14
% j! t+ v+ q; N3 s01:30:25.337 : en:Chapter 15
" S! l6 ^3 I8 n. _/ K) N01:35:24.928 : en:Chapter 16. p( }# u) U8 Y7 O. Z3 t8 x
01:39:33.342 : en:Chapter 17
0 i% {0 w& W4 ], K5 [01:43:04.220 : en:Chapter 186 K% Y# _( c$ Y
01:48:54.695 : en:Chapter 19$ ^7 ?4 H2 x' T: W# B! b
01:53:38.812 : en:Chapter 205 D2 ?" ]( G$ r# \* ]

) K! p* V# w: C  F* }$ d3 XThe.Invisible.Man.2020.720p.BluRaycd.x264-YOL0W
! N/ U* g0 I& h: o$ F7 ^& Q, ^/ {; Q! X& Y! t! n3 C/ N6 C
Date........: Fri 05/15/2020! [/ ?( E3 j1 ?
Source......: BluRay. {( _. {" P) B6 L& [! F
Runtime.....: 02:04:23.156
. s+ K& c2 z' N; Y! f4 [  Q7 i
9 E' u2 g/ [) M: K- jVideo.......: x264 @ CRF 14.7+ J6 B4 k7 k" H, j; K
Resolution..: 1280x536 2.40:1" d9 a& w  ~/ b. J3 {6 a
Bitrate.....: 5929 Kb/s' v8 X$ k: h" D" U
FPS.........: 23.976
+ j9 y! O  y) s$ o8 H8 U: w) BSource......: 27660 Kb/s
3 L/ s4 p2 _  Q0 h/ S3 ?8 j. d; c8 s: o, X5 r0 I6 O
Audio.......: English AC3 5.1 640 kb/s
! ?% {% a* G7 z! k% pCommentary With Writer/Director Leigh Whannell AAC 2.0
$ J( n, i+ F; ?: D/ V! ^5 I. b6 p$ j# ], F8 m
Subtitles...: English Spanish French
9 j- t2 I. L  A1 l" x3 u! M/ P' n$ k2 u) c& q: m3 L
Size........: 5977 MB
. Y4 t: R. ~, m; u6 o( C4 H% i+ f% c. |. i  E  i
Link........: https://www.imdb.com/title/tt1051906/! c$ Y5 O8 Q- V, D6 I6 b* H( n, U
+ S- S% A+ R0 `+ }" I+ r
Note........: El hombre invisible!

  w$ r3 j5 H1 M1 ]7 c) z6 s/ V, {+ G
游客,查看本帖隐藏内容请回复 | 加入VIP可免积分免回复 了解详情 | 还不是会员:点击获取邀请码 Invitation Code

2

主题

717

帖子

3329

积分

Sponsor

金币
582 枚
体力
1389 点
tto138 发表于 2020-5-18 19:31:53 | 显示全部楼层
这么好的帖子不回对不起自己!
1 ?, g4 [3 P" k  @9 G至少是现在,我一天没有访问蓝光电影论坛就不爽!At least now, my day did not visit the Blu-ray Film Forum on unhappy!
4 M3 y1 ^$ x8 }5 z# {. f

0

主题

79

帖子

405

积分

Sponsor

金币
10 枚
体力
254 点
Jmoren 发表于 2020-6-13 23:32:48 | 显示全部楼层
谢谢楼主的辛勤努力

本版积分规则

小黑屋|Archiver|蓝光电影资源网

GMT+8, 2022-8-15 05:21

Copyright © Tencent Cloud.

快速回复 返回顶部 返回列表